<?xml version="1.0" standalone="no"?>
<!DOCTYPE svg PUBLIC "-//W3C//DTD SVG 1.1//EN" "http://www.w3.org/Graphics/SVG/1.1/DTD/svg11.dtd" >
<svg xmlns="http://www.w3.org/2000/svg">
<metadata></metadata>
<defs>
<font id="kristimedium" horiz-adv-x="707" >
<font-face units-per-em="2048" ascent="1272" descent="-776" />
<missing-glyph horiz-adv-x="480" />
<glyph horiz-adv-x="0" />
<glyph unicode="&#xd;" horiz-adv-x="682" />
<glyph unicode=" "  horiz-adv-x="480" />
<glyph unicode="&#x09;" horiz-adv-x="480" />
<glyph unicode="&#xa0;" horiz-adv-x="480" />
<glyph unicode="!" horiz-adv-x="370" d="M48 64.5q0 29.5 10.5 54t18.5 41.5q4 -16 12 -26.5t49 -10.5q60 0 60 -62q0 -14 -5 -27q-16 -37 -53.5 -37t-64.5 19t-27 48.5zM130.5 330q-0.5 14 8.5 54q15 67 50 267.5t44.5 239t16.5 71t25 36.5q61 0 61 -44q0 -8 -15 -75.5t-31 -200.5q-30 -244 -87 -366 q-14 -25 -41 -25.5t-31 25.5q0 4 -0.5 18z" />
<glyph unicode="&#x22;" horiz-adv-x="406" d="M8 669q0 4 6 9q41 20 65 60q3 6 6 11q37 71 62 205q6 27 13 30t11 3q26 0 48 -25t23 -45q0 -50 -95 -178q-34 -45 -59.5 -69t-41.5 -24.5t-26.5 9.5t-11.5 14zM177 704.5q0 4.5 5 9.5q41 19 65 59q3 6 6 11q37 71 62 205q6 27 13 30t11 3q26 0 48 -25t23 -45 q0 -51 -97 -180q-32 -43 -57.5 -67t-41.5 -24.5t-26.5 9.5t-10.5 14.5z" />
<glyph unicode="#" horiz-adv-x="882" d="M-72 341q0 17 26.5 18t104.5 7l122 8l120 277q-152 0 -184 7q-56 17 -61 51q0 17 22 17l266 18l182 372q3 5 8 15t30 10t35 -14.5t10.5 -32t-48.5 -118.5t-101 -224q128 7 245 11q42 91 178 362q8 16 33 16t35 -14.5t10.5 -32t-40.5 -102t-103 -226.5h68q25 0 37 -41 q3 -12 3 -21q-1 -19 -57 -19l-86 -3l-54 -134q-42 -104 -63 -151q32 1 92 1q25 0 37 -41q3 -12 3 -21q-1 -19 -67.5 -20t-104.5 -3q-155 -311 -162 -311q-34 -44 -55.5 -44.5t-29.5 20.5q-3 14 5 36l119 290q-40 -3 -119 -11.5t-124 -9.5q-125 -250 -153.5 -287.5t-50 -38 t-29.5 20.5q-3 14 5 36l110 269q-116 0 -153 7q-56 17 -61 51zM307 382q65 4 234 12l123 281q-48 -4 -128.5 -12t-117.5 -10q-92 -228 -111 -271z" />
<glyph unicode="$" horiz-adv-x="718" d="M18 216q1 38 28 40q12 0 25.5 -6t24.5 -32l14 -34q30 -61 77 -90l133 461q-1 2 -2 6q-62 173 -62 276t38 181q65 131 212 158l38 117q6 17 22 19q8 0 26 -9.5t18 -40.5t-20 -81q49 -2 89 -17q107 -42 107 -159q0 -35 -7 -64q-16 -66 -56 -66q-8 0 -15 3q-31 11 -31 48 q0 12 12 46.5t12 51.5t-13 36q-33 48 -119 56q-59 -192 -159 -564l28 -109q48 -185 48 -256.5t-34 -127.5q-52 -83 -159 -83q-32 0 -63 9q-38 -105 -67 -105q-3 0 -6 2q-16 8 -16 32t21 97q-25 13 -48 31q-96 74 -96 174zM262 78q45 5 88.5 50.5t43.5 119t-24 159.5 q-22 -72 -108 -329zM370 830q0 -38 5 -88l107 358q-34 -19 -59 -58q-53 -83 -53 -212z" />
<glyph unicode="%" horiz-adv-x="979" d="M111 755.5q0 89.5 38 167.5q59 120 173 120q46 0 83 -18q79 -39 79.5 -137t-49.5 -190q-66 -122 -172 -122q-55 0 -103.5 45t-48.5 134.5zM140 -14q-6 15 8 41l473 842q66 113 132 214q9 13 31 13t34 -14.5t12.5 -33t-74 -139.5t-183.5 -327t-152 -276 q-163 -260 -195 -300q-63 -65 -86 -20zM226 723q0 -73 53 -73q56 1 95 90.5t38.5 154t-53.5 65.5q-58 -1 -95.5 -82.5t-37.5 -154.5zM511 179.5q0 89.5 38 167.5q59 120 173 120q46 0 83 -18q79 -39 79.5 -137t-49.5 -190q-66 -122 -172 -122q-55 0 -103.5 45t-48.5 134.5z M626 147q0 -73 53 -73q56 1 95 90.5t38.5 154t-53.5 65.5q-58 -1 -95.5 -82.5t-37.5 -154.5z" />
<glyph unicode="&#x26;" horiz-adv-x="994" d="M67 194q0 240 236 464q80 76 224 182q-4 26 -4 38q0 110 64.5 200t152 90t103.5 -30.5t16 -75.5q0 -90 -96 -178q-20 -18 -65.5 -55t-65.5 -56l24 -86q67 -246 106.5 -324t63 -103t68 -41.5t50 -31t5.5 -24.5q0 -34 -30 -45q-8 -3 -16 -3q-44 0 -106 86q-2 3 -3 4 q-168 225 -245 521q-120 -56 -228 -179q-158 -180 -158 -358q0 -130 157 -130q107 0 230 88l46 35q79 60 103.5 67t37 6.5t12.5 -25.5q0 -72 -120 -148q-168 -106 -328 -106q-120 0 -187 81q-47 58 -47 137zM621 867q11 15 78 87q74 80 74 140q0 1 -3 28 q-69 -46 -109 -122.5t-40 -132.5z" />
<glyph unicode="'" horiz-adv-x="437" d="M149 986q1 19 35 20q80 0 80 -97t-28 -210q-2 -10 -6 -17q-14 -45 -48 -45q-23 1 -23 9t1 10q32 41 32 94.5t-21.5 143t-21.5 92.5z" />
<glyph unicode="(" horiz-adv-x="306" d="M83 222q0 324 130 730q2 2 5 10q49 157 75 191.5t45 35.5q62 0 62 -139q0 -35 -16 -59q-142 -206 -196 -570q-18 -122 -22 -237q8 -250 8 -300t-10 -51q-32 0 -64 199q-17 106 -17 190z" />
<glyph unicode=")" horiz-adv-x="575" d="M131 -30q0 36 16.5 60.5t17.5 25.5q116 179 167 487q25 151 25 290t-6 222t-6 107t10 25q33 0 63 -179q15 -88 17 -147l2 -66q0 -332 -146 -805q-52 -159 -96 -160q-64 0 -64 140z" />
<glyph unicode="*" horiz-adv-x="788" d="M259.5 575q0.5 8 51.5 48.5t138 121.5q-150 132 -183 165q-5 7 -5 13q0 31 26 40q10 -1 24 -13q65 -66 147 -132q-5 104 -5 200q0 18 34 26q7 1 11 1q16 -1 17 -62t12 -170l20 16q123 90 137.5 95.5t33.5 5.5t24 -16q2 -7 -7 -16l-180 -157l26 -24q97 -97 110 -117.5 t13 -41.5t-14 -24q-7 1 -13 7l-138 125v-8q0 -149 -6 -175q-8 -33 -37 -33q-12 3 -13 16q-9 99 -16 202l-126 -100q-27 -27 -44.5 -27t-27.5 13t-9.5 21z" />
<glyph unicode="+" horiz-adv-x="736" d="M108 499q-4 24 11 27h3q39 3 124 11t126 11q45 231 57 246q10 10 32 11q32 -6 35 -23l-41 -228q108 8 220 8q19 0 26 -42q1 -8 1 -13q-1 -17 -38 -17q-107 -4 -220 -19q-7 -41 -27.5 -123t-35.5 -109.5t-39.5 -28t-24.5 11.5q0 32 39 238q-15 -1 -103 -1t-113 7t-32 33z " />
<glyph unicode="," horiz-adv-x="402" d="M134 -131q1 6 14 22q126 104 24 195q-32 27 -32 39q0 39 42 61q18 9 37 9q53 0 70 -62q5 -20 5 -43q0 -75 -52 -151.5t-97 -77.5q-10 1 -11 8z" />
<glyph unicode="-" horiz-adv-x="669" d="M133 429q2 13 11 16q252 33 374 33q14 -9 18 -52q-1 -18 -26 -18q-63 -3 -137.5 -16t-132.5 -13t-80 5q-26 16 -27 45z" />
<glyph unicode="." horiz-adv-x="491" d="M161 86q0 15 1 21t31 72q6 -18 14.5 -29.5t37.5 -11.5t39 -3q45 -12 45 -66q0 -18 -8 -33q-20 -39 -60.5 -39t-70.5 22t-29 67z" />
<glyph unicode="/" horiz-adv-x="759" d="M53 32l138 272q282 555 426 807q8 14 27 15q51 -6 50 -39q-1 -24 -69 -147t-168.5 -336.5t-199 -385t-128 -207.5t-54.5 -37q-4 0 -9 2q-34 12 -13 56z" />
<glyph unicode="0" horiz-adv-x="466" d="M8 89q0 111 81 421q82 314 182 515q51 108 107 108q50 0 70 -25q49 -61 54.5 -175.5t-3.5 -186.5q-37 -340 -185 -589q-2 -3 -20.5 -29.5t-29.5 -40.5q-91 -129 -157 -129q-14 0 -25 3q-74 17 -74 128zM110 147q0 -42 16 -43q14 1 40 30q71 82 153 269q121 275 121 466 q0 14 -3 36q-11 95 -34 95q-17 -2 -43 -41q-72 -114 -161 -415t-89 -397z" />
<glyph unicode="1" horiz-adv-x="587" d="M210 -27.5q0 36.5 44 161.5l86 232q122 320 151 471q-49 -40 -119.5 -134t-102.5 -130q-50 15 -50.5 54t51 103.5t58.5 75.5l202 264q24 37 29 40q6 3 12 4q57 0 76 -19t19.5 -35t-12.5 -50l-16 -42q-109 -340 -294 -853q-42 -117 -88 -163q-19 -18 -34 -18 q-12 2 -12 38.5z" />
<glyph unicode="2" horiz-adv-x="686" d="M5 37q0 75 43 136q11 19 256 310.5t298.5 388.5t53.5 144v6q-122 -40 -237 -129q-26 -21 -63 -20.5t-38 23.5q1 24 42 61q161 141 267 142q65 0 102 -41t37 -80q0 -93 -145 -267q-14 -16 -34 -40.5t-27 -32.5l-438 -529q246 80 339 79.5t94 -47.5q-2 -12 -13 -13l-72 26 q-73 0 -161 -75q-13 -12 -67 -61q-95 -87 -172 -87q-46 0 -61 67q-4 19 -4 39z" />
<glyph unicode="3" horiz-adv-x="674" d="M48 -22q0 24 12.5 47t39.5 23.5t116 73t196 226.5q146 210 146 346q-1 27 -25 29l-189 -22q-18 1 -41 40.5t-25 76.5q-9 18 141.5 95t150.5 95q-1 17 -32.5 17.5t-140.5 -41.5t-117.5 -42t-19.5 1q-92 6 -92 28q1 14 61 44q195 95 305 95q175 0 176 -91q0 -24 -24 -50 t-124 -73t-130 -77q42 8 70 8q139 -1 141 -152q0 -213 -194 -444q-139 -165 -303 -249q-48 -24 -72 -24t-26 20z" />
<glyph unicode="4" horiz-adv-x="556" d="M26.5 506.5q-0.5 30.5 51.5 99.5l1 2q175 235 417 493q19 20 25.5 22t18.5 2q66 0 90 -20q33 -27 23 -51q-53 -141 -201 -499l-200 -491q-42 -107 -61 -112q-8 2 -8 29q0 150 133 484l21 53q18 45 25 64q-249 -107 -304 -107q-31 1 -31.5 31.5zM208 621l192 77l50 114 q52 115 67 159z" />
<glyph unicode="5" horiz-adv-x="462" d="M-78 -22q0 24 12.5 47t39.5 23t92 53q112 92 220 247q146 210 146 346q-1 27 -26 29l-172 -22q-1 0 -4 1q-21 6 -21 40q0 144 11.5 206.5t28.5 89.5q40 61 117 61l239 -3q56 0 57 -29q0 -11 -8 -23q-24 -36 -80 -36l-216 2q-8 0 -16.5 -2t-15.5 -69t-16 -117q27 5 49 5 h27q131 -6 131 -152q0 -214 -194 -444q-139 -165 -304 -249q-48 -24 -71.5 -24t-25.5 20z" />
<glyph unicode="6" horiz-adv-x="646" d="M142 96q0 226 145 614q81 216 129 287q17 25 42 50q77 76 148 76q27 0 27.5 -5.5t-14.5 -16.5q-171 -120 -294 -560l-55 -199q-8 -27 -8 -30q1 -14 17 -15t107 41.5t147 42.5q94 -1 96 -64q-1 -67 -108 -173q-196 -195 -294 -198q-84 1 -85 150zM229 101q2 -36 41 -42 q62 0 163 98.5t101 133.5q-1 14 -14 16q-28 -1 -101 -29q-88 -34 -154 -101q-38 -40 -36 -76z" />
<glyph unicode="7" horiz-adv-x="632" d="M-46 37q4 78 49 144q57 75 215 263l196 236q191 242 191 336v6q-13 -3 -279 -70l-75 -19q-23 1 -25 22q0 48 41 61q280 85 323 85t84 -34t40.5 -99.5t-92.5 -191.5q-16 -22 -102 -125l-450 -542q-4 -5 -39.5 -95.5t-56.5 -90.5q-20 1 -20 114z" />
<glyph unicode="8" horiz-adv-x="633" d="M92 98q0 300 253 631q7 9 6.5 22t-0.5 19q0 161 38 248.5t68.5 108t54.5 20.5q65 0 112 -35.5t48 -73.5q0 -71 -84 -153l-52 -48q-82 -73 -110 -114q35 -55 35 -253t-61 -376q-66 -192 -177 -192q-127 0 -130 185q0 6 -1 11zM181 133q1 -100 66 -109h5q52 0 92 122 q71 216 16 459q-35 -23 -104.5 -179.5t-73.5 -282.5q0 -6 -1 -10zM416 822q15 22 76.5 98.5t82.5 143.5q-70 -22 -114.5 -95.5t-44.5 -146.5z" />
<glyph unicode="9" horiz-adv-x="612" d="M68 -64q9 4 32 26q115 115 184 273t160 477l6 21q5 15 10 31.5t4.5 26.5t-16.5 11t-107.5 -41.5t-145.5 -42.5q-96 0 -96 64q0 141 103 250.5t233 109.5q41 0 74 -16q75 -36 76 -123q0 -229 -164 -654q-87 -225 -119 -273q-100 -148 -205 -148q-27 0 -27.5 4t-1.5 4z M190 806q1 -12 14.5 -13t27.5 2q79 15 173 81.5t95 121.5q-1 53 -62 55q-86 0 -165.5 -83t-82.5 -164z" />
<glyph unicode=":" horiz-adv-x="615" d="M267 102q0 15 1 21t31 72q6 -18 14.5 -29.5t37.5 -11.5t39 -3q45 -12 45 -66q0 -18 -7 -33q-20 -39 -61 -39t-70.5 22t-29.5 67zM315 598q0 15 1 21t31 72q6 -18 14.5 -29.5t37.5 -11.5t39 -3q45 -12 45 -66q0 -18 -7 -33q-20 -39 -61 -39t-70.5 22t-29.5 67z" />
<glyph unicode=";" horiz-adv-x="724" d="M335 -131q1 6 14 22q126 104 24 195q-32 27 -32 39q0 39 42 61q18 9 37 9q53 0 70 -62q5 -20 5 -43q0 -75 -52 -151.5t-97 -77.5q-10 1 -11 8zM375 647l19 41q6 -18 14.5 -29t38.5 -11q83 0 82 -69q0 -18 -7 -33q-19 -39 -59.5 -39t-70.5 21q-51 36 -17 119z" />
<glyph unicode="&#x3c;" horiz-adv-x="747" d="M82 455.5q0 19.5 2 27.5q1 7 14 13q25 11 128 72q108 65 231 125.5t133.5 60.5t11 -21t-15.5 -45q-18 -22 -62 -48l-54 -32q-41 -25 -142 -74t-144 -73q49 -17 143.5 -69.5t118.5 -62.5q60 -25 60 -81q-1 -17 -15 -19q-31 2 -100 39q-164 96 -228 126.5t-67 32.5 q-14 9 -14 28.5z" />
<glyph unicode="=" horiz-adv-x="1333" d="M194 430q0 14 14 16h3q425 34 635 34q20 0 29 -38q2 -9 2 -15q-1 -17 -76.5 -18.5t-201 -14.5t-231.5 -13q-107 -1 -134 5q-34 8 -40 44zM264 701q0 14 15 16h3q384 31 627 33h8q19 0 28 -37q2 -9 2 -15q-1 -18 -43 -18q-109 -3 -234.5 -16t-231.5 -13q-107 1 -135 7 q-39 8 -39 43z" />
<glyph unicode="&#x3e;" horiz-adv-x="774" d="M115.5 251q-0.5 21 16 44.5t61 49t69 40.5t125 63t146.5 74q-51 17 -147 70.5t-118 63.5q-58 25 -57 80q1 17 15 19q30 -2 98 -39q162 -96 226.5 -126.5t65.5 -31.5q19 -9 19 -33t-4.5 -29t-25 -15.5t-140.5 -79t-224 -120t-114.5 -51.5t-11 21z" />
<glyph unicode="?" horiz-adv-x="771" d="M216 123l17 37q4 -16 11.5 -26.5t49.5 -10.5q60 0 60 -62q0 -14 -6 -27q-16 -37 -53 -37t-65 19q-46 32 -14 107zM276 376v13q0 123 66 213q29 42 132.5 153.5t134 147t30.5 85.5t-48 74q-20 9 -55 9.5t-78 -35t-52 -36.5q-23 0 -31 45q-1 7 -1 13q0 47 43 73t88 26 q99 0 157 -79q41 -57 41 -128q0 -100 -101 -202q-20 -20 -60 -56t-56 -52q-77 -69 -106.5 -123.5t-42.5 -138.5q-15 -98 -35 -98t-26 96z" />
<glyph unicode="@" horiz-adv-x="1036" d="M77 430q0 114 83 210q146 168 473 174h22q182 0 265 -115q44 -61 44 -129q0 -141 -84 -259q-116 -162 -214 -162q-52 0 -64 59q-10 45 27 181q7 26 10 40q-17 -21 -115 -161q-109 -156 -148 -156t-58 35q-8 15 -7 32q0 45 52 164q85 195 187 273q51 38 98 40l42 -5 q10 0 21 11.5t35.5 11.5t29.5 -24q0 -7 -7.5 -23.5t-9.5 -24t-46.5 -155.5t-44 -194.5t11.5 -47.5q51 -1 121 81q89 104 89 235t-125 184q-60 25 -136 25q-290 0 -414 -150q-64 -79 -64 -170q0 -191 110 -300.5t307 -109.5q123 0 178 33t71 37.5t39 3.5t24 -20 q0 -94 -201 -115q-46 -5 -95 -5q-305 0 -433 208q-74 122 -74 288zM400 205q158 208 282 392q-122 -20 -208 -166q-64 -108 -74 -214q-1 -7 0 -12z" />
<glyph unicode="A" horiz-adv-x="631" d="M-75 -80q0 17 29 60t34 49l223 350q-153 1 -188 16t-35 48q0 15 22 19q164 16 268 24l223 370l64 275q8 37 39 37h6q28 0 48 -5q70 -16 70 -64q0 -7 -33 -154t-113 -440q83 4 220 4q10 -1 23 -19.5t14 -49.5q-1 -21 -83 -23.5t-201 -13.5q-108 -417 -108 -478 q2 -16 31 -44q29 -23 30 -44q0 -63 -44 -63q-24 0 -43 16q-45 39 -45 121.5t11.5 168.5t69.5 312q-92 -11 -140 -13q-159 -267 -328 -464q-13 -12 -37.5 -11.5t-26.5 16.5zM382 493l102 7q19 85 28 148q-1 9 -7 9q-11 -1 -39 -35q-42 -52 -64 -92z" />
<glyph unicode="B" horiz-adv-x="570" d="M64 32q0 79 219 837l62 214q18 62 106 79q23 4 46 4q80 0 113 -35.5t33 -71.5q0 -67 -123 -185q-3 -3 -5 -4q69 0 113 -85q28 -56 28 -110q0 -155 -145 -364q-108 -154 -270 -295q-62 -54 -79.5 -59t-24.5 -5q-33 0 -52.5 30.5t-20.5 49.5zM181 114q94 56 199 185 q196 240 196 453q-1 36 -15 37q-3 0 -11 -3q-116 -49 -227 -148q-4 -23 -70.5 -259.5t-71.5 -264.5zM382 888q75 43 108 87.5t60 102.5q-61 -1 -128 -40l-8 -4q-11 -77 -32 -146z" />
<glyph unicode="C" horiz-adv-x="720" d="M106 254q0 188 93 437.5t247 393.5q35 31 72 32q178 0 178 -115q0 -62 -95.5 -254.5t-133.5 -192.5q-27 0 -27 23q1 11 18.5 31.5t50.5 87.5q72 147 72 236q0 16 -9 35q-20 42 -50 42q-101 -2 -264 -544q-44 -143 -44 -280q0 -39 17 -80q34 -80 102 -80q119 0 243 96 q44 34 130 107t94 73q4 -1 6 -9q-1 -73 -171 -224q-142 -123 -288 -123q-103 0 -162 51q-79 69 -79 257z" />
<glyph unicode="D" horiz-adv-x="606" d="M107 27q13 37 130.5 416t164.5 509l-45 22q18 113 106 147q28 10 59 10q86 0 151 -65q65 -64 65 -149q0 -102 -44 -235q-108 -323 -382 -628l-69 -73q-39 -35 -53 -37q-43 1 -83 83zM243 139q77 81 151 194q4 6 7 10q228 353 228 663q0 35 -19 41q-6 1 -12 1 q-63 -1 -107 -29q0 -83 -31.5 -187.5t-45 -149t-77 -232.5t-94.5 -311z" />
<glyph unicode="E" horiz-adv-x="592" d="M34 -25q1 21 17 48q31 145 228 750q-38 -2 -48 -2q-2 2 -2 5q0 44 21 66.5t35.5 23t24.5 0.5l59 176q7 62 39 84q11 7 81 7t288 -7q25 -1 36 -43q3 -10 3 -18q0 -19 -50 -20q-23 0 -47 0.5t-73 0.5t-167 -4l-56 -177q101 -2 212 -6q25 -1 36 -45q3 -11 3 -18 q-4 -19 -39 -19l-104 2q-62 0 -137 -2l-241 -714q57 -1 128 -2t165 -4q39 -1 39 -64q-2 -18 -38.5 -17.5t-66.5 0.5h-45l-284 -8q-16 1 -17 7z" />
<glyph unicode="F" horiz-adv-x="597" d="M-158 -160q0 7 12.5 10t13.5 4q196 43 305 390q24 76 59 225l69 294h-24q-15 1 -16 16q0 43 35 72q14 11 29 14q62 260 79 293q18 34 40 38t46 4q28 0 27 -27q0 -22 -4 -36q202 6 409 9q31 0 48 -42q5 -13 6 -22q-1 -21 -76 -21q-159 -2 -414 -20l-43 -172q216 6 343 5 q31 0 47 -40q5 -14 6 -23q-1 -21 -90 -22.5t-331 -18.5l-48 -192q-101 -397 -200 -551q-64 -99 -145 -153.5t-132 -54.5t-51 21z" />
<glyph unicode="G" horiz-adv-x="633" d="M-104 -742q0 7 13.5 10t13.5 4q77 12 152 92q19 21 33 41q168 234 322 762q20 67 29 105q-127 -314 -255 -314q-100 0 -100 131t90 456.5t169 497.5q31 67 54.5 95.5t66.5 29.5q93 0 108 -131q3 -23 3 -57q0 -17 -1 -37q-2 -60 -26 -61q-16 0 -26 20q0 63 -14.5 97 t-25.5 35q-80 0 -173 -308q-72 -238 -103 -467q-8 -60 -8 -96t15 -38q51 3 129 164t110 313q8 40 9 68q-14 0 -22 4q-27 14 -29 44q2 14 11 16q267 36 389 36q15 -8 19 -53q-1 -17 -27 -18q-64 -3 -127 -14t-70 -12q-24 -99 -25 -111t-8 -46q-157 -804 -359 -1087 q-69 -96 -150 -145t-127 -49q-60 0 -60 23z" />
<glyph unicode="H" horiz-adv-x="691" d="M-44 619q0 15 19 18q3 0 4 1l305 27l101 410q4 15 10.5 49t21.5 46t64 12q29 -2 30 -27q0 -11 -1 -17l-116 -465q112 6 164 8l120 465q4 15 9.5 49.5t21 46t65.5 11.5q29 -2 30 -29q0 -10 -1 -16l-134 -524h49q35 1 53 1q23 0 34 -49q2 -12 2 -20q-1 -22 -51 -22.5 t-113 -4.5l-42 -154q-90 -311 -90 -516q0 -208 88 -285q17 -12 18 -20q-2 -10 -17 -10q-1 0 -1 -1q-14 0 -30 10q-86 47 -128 201q-21 78 -21 149q0 184 87 522l24 95l-164 -18q-119 -476 -146 -543t-51 -111t-78 -92q-53 -47 -78 -47h-1q-24 1 -25 10q0 9 12 27 q134 204 217 586l40 163h-3q-206 0 -239.5 6t-45.5 25.5t-13 32.5z" />
<glyph unicode="I" horiz-adv-x="376" d="M-18 -221q0 9 12 27q115 175 204 533l181 736q4 15 10.5 49t21.5 46q14 11 49 11h6q40 -1 40 -19q0 -20 -112 -473q-112 -455 -151 -582t-71 -185t-86 -106q-53 -47 -78 -47h-1q-24 1 -25 10z" />
<glyph unicode="J" horiz-adv-x="370" d="M-279 -755q0 8 13.5 12t13.5 5q72 24 141 117q24 33 41 66q107 219 188 497t208 872q6 27 22.5 113t26 124.5t14.5 72.5t20.5 46t66.5 12q29 -2 30 -27q0 -11 -24.5 -110.5t-116.5 -544t-167 -668.5q-135 -411 -297 -550q-73 -64 -123 -64h-4q-52 0 -53 27z" />
<glyph unicode="K" d="M112 30q0 76 210 824l75 263q8 24 31 38q56 31 80 31q10 -2 11 -14q0 -14 -114 -414l309 365q9 11 26.5 11t32 -17t13.5 -33q0 -18 -80 -110l-166 -201q52 -460 80.5 -567.5t59 -179.5t93.5 -121q27 -21 52 -30t26 -17q-1 -13 -36 -13q-106 0 -198 134q-48 71 -84 186 t-56.5 269.5t-28.5 220.5l-109 -142q-16 -60 -70 -249.5t-64 -227.5l-14 -53q-8 -31 -16 -31q-28 0 -45 32t-18 46z" />
<glyph unicode="L" horiz-adv-x="621" d="M41 -23q0 25 23.5 100.5t93.5 369.5l31 127q95 385 200 551q63 98 143.5 153t132.5 55t52 -21q0 -8 -24 -14h-2q-193 -44 -303 -383q-24 -76 -110.5 -437.5t-93.5 -386.5l-10 -37q213 8 418 8q32 0 49 -41q5 -13 5 -23q-1 -20 -98.5 -21t-281.5 -13t-189 -12 q-36 0 -36 25z" />
<glyph unicode="M" horiz-adv-x="696" d="M10 -15q9 7 13 12q83 76 114 144q13 32 248 798l1 1v2q3 11 13 53q36 168 63.5 201t47.5 33q48 -4 52 -29q0 -5 -9 -39q-77 -258 -77 -393q0 -18 16 -35t19 -17q27 2 102.5 178.5t95.5 216t34 39.5q39 0 53 -12t15 -16q0 -6 -21 -60q-21 -56 -138.5 -442t-145 -509 t-27.5 -182q1 -19 31 -39q36 -24 35 -45q-1 -65 -39 -66q-94 1 -94 176q0 141 61 347q72 243 72 259q-14 -36 -42.5 -60t-49 -24t-47 33t-27.5 54t0 28q-19 -40 -74 -240t-114 -295q-73 -118 -172 -118q-33 1 -33 14q0 12 24 32z" />
<glyph unicode="N" horiz-adv-x="618" d="M-18 -373q0 5 20 47q33 67 192 596q242 809 251 883q10 52 44 52q73 0 78 -37q-3 -32 -45 -216.5t-45.5 -214t-17 -119t-13.5 -120t2 -38.5q25 83 80 299t80.5 286.5t29.5 84.5q81 244 128 244q13 0 36 -16.5t23 -39.5t-20 -57q-68 -116 -166 -379q-191 -514 -201 -867 v-1q-4 -134 -38 -134q-14 0 -24 2q-24 6 -24 39l10 470q0 36 -2 84q-224 -646 -277 -773q-41 -78 -95 -82q-6 2 -6 7z" />
<glyph unicode="O" horiz-adv-x="553" d="M119 79q0 121 80.5 426t178.5 522q20 43 23 51q38 74 93 74t76 -29q51 -61 57 -170q2 -41 2 -77q0 -60 -6 -106q-53 -405 -196 -610l-20 -30q-115 -172 -188 -172q-100 0 -100 121zM234 162q1 -2 2.5 -15.5t11.5 -13.5q13 1 38 28q69 79 150 263q121 273 121 462 q0 15 -3 38q-11 93 -30 93q-73 -2 -213 -505q-77 -277 -77 -350z" />
<glyph unicode="P" horiz-adv-x="622" d="M-195 -409q0 4 13 7t13 4q77 19 148 101q126 152 236 590l115 469q72 299 89 339.5t39 46.5q2 0 2 1l38 5q30 0 34 -18q1 -5 -7 -38.5t-8 -43.5q12 2 35 2q101 0 140 -52q17 -24 17 -55q0 -140 -100.5 -329.5t-199.5 -277.5q-55 -48 -92 -49q-90 -369 -192 -527 q-60 -93 -139.5 -145.5t-123.5 -52.5t-50 9q-6 10 -7 14zM332 392q173 180 250 394q29 80 38 153q-22 32 -68 32l-2 -1q-48 0 -68 -21q-14 -52 -61 -236.5t-89 -320.5z" />
<glyph unicode="Q" horiz-adv-x="558" d="M109 79q0 121 81 426t179 522q20 43 23 51q38 74 98 74q40 0 75 -32.5t44 -145.5q5 -61 5 -111q0 -45 -4 -83q-47 -413 -192 -620l-15 -22q-14 -22 -22 -32q31 -94 59 -131q57 -73 185 -74q36 0 38 -13q-2 -30 -90 -30q-44 0 -89 11q-125 32 -194 127q-42 -38 -80 -38 q-101 0 -101 121zM225 162q1 -2 2.5 -15.5t11.5 -13.5q13 1 38 28q69 79 150 263q121 273 121 462q0 15 -3 38q-11 93 -30 93q-73 -2 -212 -505q-77 -277 -78 -350z" />
<glyph unicode="R" horiz-adv-x="718" d="M95 32q0 32 69 301q69 271 213 750q5 17 17 32q41 51 135 51q55 0 117 -40t62 -112q0 -159 -184 -249q32 -272 58 -442q36 -231 100 -330q56 -94 128 -118q22 -5 23 -17q-1 -12 -45 -13q-76 1 -153 91.5t-106 186.5q-3 8 -4 15q-57 183 -101 584l-52 -18 q-148 -469 -198 -728q-8 -22 -16 -24q-18 1 -40 25q-24 25 -23 55zM390 789q35 7 70 21q139 58 139 178q0 8 -1 18q-11 68 -58 68t-78 -18q-9 -49 -39 -153.5t-33 -113.5z" />
<glyph unicode="S" horiz-adv-x="449" d="M-3 138.5q0 86.5 66 87.5q42 -1 44 -50l-6 -69q0 -39 27 -41q85 0 122 284l99 763q3 20 15 40q30 48 78 48t99 -38t51 -100.5t-24 -129.5q-39 -107 -99 -107q-33 0 -48 22l-74 -502q-19 -121 -55 -212q-66 -161 -162 -161q-46 0 -89.5 39.5t-43.5 126zM426 973 q0 -11 3 -21q64 7 67 115q-19 -2 -44.5 -23.5t-25.5 -70.5z" />
<glyph unicode="T" horiz-adv-x="576" d="M126 -214q0 11 23 46q122 191 211 582l148 602q-2 0 -133 -8q-47 -3 -85 -4q-67 0 -103 10q-49 23 -57 51q-5 22 67 31l65 6l86 6q92 4 184 9l1 1q4 17 10.5 52t22 47t66.5 12q30 -2 30 -29q0 -15 -1 -18l-16 -62l345 5q33 0 50 -43q5 -13 5 -23q-1 -21 -80 -21 q-167 -2 -343 -14q-200 -809 -236.5 -924t-67.5 -171.5t-87 -105.5t-92 -50q-13 2 -13 13z" />
<glyph unicode="U" horiz-adv-x="704" d="M175 75q0 141 85 446t124.5 406.5t47.5 126.5q21 57 63 57l1 -1q43 0 44 -41q0 -30 -23 -90q-189 -504 -232 -834q12 1 28 18q160 185 338 603q8 18 70 168.5t83 162.5q6 3 28 3.5t31 -11t9 -36.5t-16 -66q-100 -248 -173 -528q-35 -139 -35 -258t4 -140t-12.5 -40 t-29 -26.5t-34.5 1.5q-22 8 -32 30q-5 11 -5 42q1 35 7 95q12 113 34 211l25 108q-116 -254 -205 -378t-173 -125q-52 2 -52 96z" />
<glyph unicode="V" horiz-adv-x="542" d="M24 -41q0 11 31.5 147.5t51.5 237.5t152 604q8 29 8 69q-2 16 -32 44q-29 23 -29 44q0 63 44 63q47 0 67.5 -45.5t20.5 -96.5q0 -155 -54.5 -393.5t-62.5 -300t-15 -101.5l573 810q24 23 81 23h5q23 -1 23 -13q0 -6 -5 -14t-5 -16t-34 -55q-621 -855 -644 -890t-41 -53 l-22 -96q-3 -11 -4 -15q-7 -22 -34 -22q-75 1 -75 69z" />
<glyph unicode="W" horiz-adv-x="1035" d="M175 75q0 141 85 446t124.5 406.5t47.5 126.5q21 57 63 57l1 -1q43 0 44 -41q0 -30 -23 -90q-189 -504 -232 -834q12 1 28 18q159 185 337 602l77 185l12 31q19 48 27 73q21 57 63 57l1 -1q43 0 44 -41q0 -13 -2 -29q-3 -28 -21 -69t-19 -45q-173 -476 -213 -781 q12 1 28 18q160 185 338 603q8 18 70 168.5t83 162.5q6 3 28 3.5t31 -11t9 -36.5t-16.5 -66.5t-19.5 -49t-93 -166t-138 -289.5q-116 -254 -205 -378t-173 -125q-52 2 -52 95t52 312q-162 -343 -286 -396q-25 -10 -48 -11q-52 2 -52 96z" />
<glyph unicode="X" horiz-adv-x="387" d="M-118 -185q4 10 20 28q21 25 35.5 53t42.5 76l234 421q3 416 3 704q0 40 39 66l38 23q6 4 12 4t12 -4q9 -5 9 -64q0 -16 -1 -35l-16 -474q-1 -25 -1 -51l163 294q29 57 36 66q21 25 83 32h6q17 1 17 -13q0 -5 -2 -12q-1 -2 -6 -18l-295 -523q10 -222 61 -373 q16 -32 12 -52q-4 -9 -26 -3.5t-63.5 62.5t-61.5 130q0 2 -7.5 30t-8.5 38l-126 -223q-37 -63 -55 -99q-25 -49 -51 -76q-30 -36 -85 -42q-3 0 -13 12q-7 8 -7 16q0 4 2 7z" />
<glyph unicode="Y" horiz-adv-x="558" d="M30 -194q101 122 205 348l132 301q-72 451 -95 555q-19 91 -19 123v7q4 23 42 36q15 5 32.5 4.5t22.5 -18.5q10 -48 43 -249t48 -279l176 441q7 16 18 50t27.5 45t55.5 12h1q37 0 37 -21q-1 -3 -1 -5q0 -6 -3 -18l-407 -971q-73 -169 -125.5 -243t-107.5 -115 q-54 -40 -75 -40h-1q-21 1 -21 10t15 27z" />
<glyph unicode="Z" horiz-adv-x="800" d="M-38 13l-2 16q0 15 5 27q7 18 52 68l809 912l-428 -16q-27 0 -58 4q-116 17 -116 59q0 15 30 17h2l199 16q158 9 283 9h196q33 0 50 -43q4 -11 4 -21q0 -17 -41 -21q-12 -17 -31 -38l-783 -898q58 4 206 17q147 13 181 14h21q115 0 136 -42q5 -8 5 -15q1 -12 -11 -14.5 t-20 -3.5l-168 -23q-154 -15 -259 -18.5t-167 -6.5q-22 -24 -56.5 -24t-38.5 25z" />
<glyph unicode="[" horiz-adv-x="688" d="M174 -110q0 25 40 143t130 479l117 464q6 22 14.5 64.5t18.5 50t26 7.5t50 0.5t117 0.5t103 -11t21 -19q0 -21 -34.5 -33t-69.5 -12l-137 -2q-37 -123 -146 -532t-154 -560q40 3 157.5 6t153.5 11q76 17 78 -9q0 -57 -110 -82q-69 -16 -311 -16q-64 1 -64 50z" />
<glyph unicode="\" horiz-adv-x="589" d="M157 1147q12 25 56 29q33 0 48 -88q60 -324 106 -528l49 -218q67 -300 66.5 -363.5t-37.5 -64.5q-25 2 -34 33q-151 560 -217 966l-36 223q-1 6 -1 11z" />
<glyph unicode="]" horiz-adv-x="666" d="M58 -134q0 20 34 32t70 12l137 2q39 130 147 538t152 555q-16 -1 -149 -6t-165 -13q-72 -17 -74 11q0 57 110 82q62 15 310 15q63 -3 64 -49q0 -29 -39 -145.5t-129 -477.5l-118 -464q-6 -21 -14.5 -63t-20.5 -51q-9 -6 -23 -7q-208 0 -249.5 1.5t-42.5 27.5z" />
<glyph unicode="^" horiz-adv-x="715" d="M77 653q1 5 7 11q194 256 262 334l76 87l3 3v1q24 24 58 -6q10 -6 10 -15q36 -132 78 -259.5t42 -156t-30.5 -28.5t-40.5 22q-2 4 -4 13t-31 95q-40 119 -64 243q-39 -46 -98.5 -128t-83.5 -109l-17 -19q-91 -101 -112 -108q-5 -1 -28.5 0t-26.5 20z" />
<glyph unicode="_" horiz-adv-x="1000" d="M58 -296q0 11 22 10q547 27 806 28q26 0 38 -29q2 -7 2 -12q-1 -13 -95 -13.5t-256.5 -10.5t-295.5 -10.5t-172 4t-48 27.5q-1 4 -1 6z" />
<glyph unicode="`" horiz-adv-x="453" d="M69 1058q0 17 10 35q20 38 51 38q9 -1 16 -13t41.5 -86t68 -116t83.5 -55l1 -1q6 -3 6 -9t-10 -18q-8 -12 -26 -12q-30 0 -135.5 92.5t-105.5 144.5z" />
<glyph unicode="a" d="M-2 69q0 42 62 191q100 242 227 373q100 102 194 105l59 -8q14 0 29.5 16t40 16t39 -13t14.5 -22.5t-10 -31.5t-12 -29q-133 -417 -133 -532q1 -40 18 -41q61 0 191 160q87 107 112.5 157t40.5 53q3 0 5 1q18 -2 19 -21q0 -36 -83 -162q-177 -270 -306 -270 q-93 0 -93 130q0 62 25 154.5t30 115.5q-23 -30 -154 -218t-188 -222q-18 -10 -31 -11q-57 0 -83 45q-13 23 -13 64zM126 91q229 302 401 562q-160 -27 -279 -210q-116 -178 -122 -352z" />
<glyph unicode="b" horiz-adv-x="597" d="M26 216q0 19 28 64q136 212 278.5 531.5t168.5 442.5q7 28 53 29q15 0 31 -4q41 -12 41 -39q0 -9 -7 -21q-171 -295 -206 -513q71 42 139 43q24 0 44 -8q57 -22 57 -88q0 -40 -49.5 -185.5t-163 -337t-190.5 -191.5q-65 0 -66 159q0 67 24 192.5t75 223.5 q-31 -42 -93 -142.5t-86 -136.5v-1q-28 -42 -51 -42h-1q-24 0 -26 24zM282 160q1 -33 22 -35q15 0 37 21q67 65 148.5 255t81.5 250q-1 16 -17 19q-31 0 -61 -16q-98 -54 -165 -260q-46 -141 -46 -234z" />
<glyph unicode="c" horiz-adv-x="593" d="M78 114q-9 42 -9 84q0 94 44 189q2 4 20 43q106 235 195 335q20 21 53 22q128 0 128 -83q-4 -43 -69 -181.5t-96 -138.5q-15 3 -19 16q0 8 10 19t24 40q44 88 44 148t-17 84q-27 -1 -63 -55q-65 -101 -112.5 -264t-47.5 -258q0 -19 1 -30q4 -68 57 -68q160 0 433 278 q35 35 50 35q9 0 11 -11q0 -17 -20 -50q-52 -86 -161 -181q-161 -141 -276 -141q-76 1 -122 57q-46 55 -58 111z" />
<glyph unicode="d" horiz-adv-x="634" d="M-58 74q0 36 66 156t226.5 312t219 216t124.5 24q26 18 55 52t69 118l52 110q17 34 60 128.5t68 144.5q103 206 171 206q67 -1 69 -66q0 -49 -41 -107t-99 -58q-186 -306 -379 -881l-41 -116q-107 -295 -108 -388q2 -16 32 -44q29 -23 29 -44q-2 -57 -43 -63 q-25 0 -45 18q-40 37 -40 120q0 154 65.5 338.5t77.5 229.5l-103 -135q-138 -181 -251 -291q-9 -5 -51.5 -40.5t-102.5 -35.5q-17 0 -31 6q-49 20 -49 90zM46 107q0 -15 7 -17q9 0 28 13q71 48 218 219t191 297q10 30 10 40.5t-4 12.5q-7 0 -62 -53q-218 -204 -356 -441 q-32 -56 -32 -71z" />
<glyph unicode="e" horiz-adv-x="547" d="M79 214q0 89 54.5 250.5t167.5 292.5q50 64 104 64q26 0 54 -11q66 -27 66 -87q0 -9 -6 -29q-41 -81 -132 -187t-185 -169q-32 -116 -32 -181t3 -83q9 -42 67 -42t134 53.5t162 141.5t97.5 99t14.5 15q30 33 44 33q9 0 12 -14q0 -13 -16 -43q-49 -91 -150 -193 q-160 -162 -283 -162q-58 0 -99 33q-77 63 -77 219zM250 490q20 3 86 86t66 130q0 7 -5 16q-20 -20 -83.5 -114t-63.5 -118z" />
<glyph unicode="f" horiz-adv-x="439" d="M-374 -526q0 29 32 40q124 36 171.5 86t80.5 120q90 192 190 629t202 758q25 78 64.5 117t70.5 40q73 0 73 -118q0 -42 -24 -63.5t-52 -21t-47 18.5q-18 -66 -42 -145t-47 -172q28 30 64 31h1q35 0 99 -24q65 -23 98 -23l86 21q15 -2 16 -13q0 -54 -97 -67q-21 -3 -41 -3 l-103 5q-91 -1 -147 -100t-139 -392.5t-113 -371.5q-145 -371 -306 -402q-15 -3 -28 -3q-57 0 -62 53z" />
<glyph unicode="g" horiz-adv-x="682" d="M10 329q50 57 169 145l182 136q194 143 255 143h1q61 -1 120 -71q-25 -14 -33 -72q1 1 12 1t21.5 -5.5t10.5 -46t-8 -41.5q-14 0 -57 -38.5t-64 -71.5q-19 -155 -66 -364q-100 -443 -212 -618q-34 -52 -83 -101q-110 -106 -202 -106q-44 0 -44 21q1 8 28.5 14.5 t61.5 26.5q71 43 116 115q83 132 142.5 323t131.5 550v3q8 50 8 54q-1 16 -29 16.5t-61.5 -14.5t-147.5 -79.5t-190 -64.5q-24 0 -59 22t-35 54q0 30 32 69zM224 357q1 -9 12 -11q30 0 114.5 48.5t92.5 52.5q8 3 28 15l29 17q167 93 175 132q-15 34 -39 34q-7 0 -11 -2 q-87 -34 -241.5 -137t-159.5 -149z" />
<glyph unicode="h" horiz-adv-x="557" d="M-39 -7q0 23 103 299q104 278 235.5 574t150.5 388q7 28 52 29q15 0 30 -4q42 -11 42 -39q0 -10 -6 -22l-14 -24q-76 -135 -266 -600q1 1 38 46q37 44 52 60l19 20q19 19 58 19q1 -1 2 -1q40 0 42 -40q0 -11 -14 -49t-38 -142q-60 -252 -60 -408q0 -63 18 -65q31 0 96 79 q59 71 186 326q19 33 44 33q13 -3 15 -22q0 -50 -27 -118q-51 -131 -153.5 -246t-168.5 -115q-97 1 -99 159q0 130 43 369q-64 -21 -115 -101q-50 -80 -104 -232q-56 -157 -77 -177q-23 -17 -53 -17t-31 21z" />
<glyph unicode="i" horiz-adv-x="489" d="M85 178v5q0 153 59 354q75 258 142 258q33 0 48.5 -15.5t15.5 -22.5q0 -32 -65 -157.5t-80.5 -182t-23 -147t-7.5 -116.5q0 -88 21.5 -110t52.5 -23q88 0 210 153q59 75 92 138q15 24 31 24q27 -4 30 -27q0 -3 -3 -15q-37 -104 -147 -212q-130 -128 -218 -128 q-119 0 -149 135q-9 41 -9 89zM320 963q0 27 75 127t85 120q8 8 19 8q21 0 50 -33q26 -31 26 -53q0 -8 -4 -15q-7 -26 -85 -110t-117 -85q-5 2 -25 16q-24 17 -24 25z" />
<glyph unicode="j" horiz-adv-x="325" d="M-406 -760q1 8 27.5 14t58.5 25q71 42 118 118q130 209 212 582q57 262 116 489t65.5 260.5t12.5 42.5q15 23 78 23q28 -1 30 -29q0 -14 -47 -202l-145 -583q-98 -395 -198 -553q-34 -53 -84 -102q-109 -106 -201 -106q-43 0 -43 21zM258 960q0 27 74.5 127t85.5 119 q6 7 23 8h1q16 0 42 -30q27 -32 27 -57q0 -5 -1 -11q-8 -28 -86 -112.5t-117 -85.5q-5 1 -25 15q-24 17 -24 27z" />
<glyph unicode="k" horiz-adv-x="488" d="M6 69.5q0 23.5 15 61t22 59.5t58 153q263 680 398 862q10 10 23 10q9 0 19 -5q43 -30 44 -73q0 -41 -30 -63q-72 -52 -110 -102t-66.5 -154.5t-55.5 -167.5q9 8 62 20t87 12q102 0 102 -60q0 -50 -75 -137q-74 -86 -221 -179q-6 -37 -6 -143.5t18 -201.5 q37 -204 120 -205q22 1 52 23.5t38.5 22.5t24 -9t15.5 -29q-2 -68 -107 -68h-1q-106 0 -167 89q-73 108 -95 373q-7 90 -12 90q-5 -11 -40 -115t-65 -104q-4 0 -12 3q-35 14 -35 37.5zM246 437q3 -23 24 -29q24 2 104 70q79 68 79 95q1 13 -15 13h-1q-16 0 -69 -21 q-54 -21 -99 -63q-22 -21 -23 -65z" />
<glyph unicode="l" horiz-adv-x="419" d="M3 -56q0 155 58 323l10 29q187 536 290 719q72 132 156 132q119 -1 121 -86q0 -53 -71 -167.5t-285 -399.5q-54 -61 -96 -138q-101 -190 -101 -418q0 -81 32 -156q54 -126 160 -126q83 0 139.5 42.5t133.5 139.5q24 31 50 21q26 -9 26 -41q0 -94 -111.5 -161t-212.5 -67 q-299 0 -299 354zM267 611q0 -3 2 -5q15 0 139 216q123 214 122 223q0 9 -8 9h-3q-5 0 -6 -2q-33 -20 -139.5 -212.5t-106.5 -228.5z" />
<glyph unicode="m" horiz-adv-x="753" d="M-131 72q68 66 110 118q88 109 126.5 250.5t43.5 165.5t19 78l20 71q15 64 34.5 81t45.5 17q49 0 49 -32q0 -30 -76 -185.5t-93 -203.5q6 7 35 53t34.5 54t21.5 36q85 153 109 153l14 2q51 -1 51 -28q0 -10 -6 -26q-5 -12 -34 -74q-30 -64 -30 -95q0 -6 1 -11v-6l74 112 q72 109 107 158q10 13 34 13t39.5 -12.5t16.5 -19.5l-6 -15q-180 -437 -180 -624q0 -78 51 -93q11 -3 23 -3q36 0 73 31q137 110 245 285l19 32q10 16 31 19q27 0 27 -29q0 -52 -114.5 -186.5t-170 -176.5t-121 -42t-107.5 78q-29 54 -29 125t33.5 189.5t36.5 142.5t2 27 q-47 -61 -108 -171l-80 -141q-18 -29 -36 -29q-50 0 -50 61q0 28 39 107t39 114q-14 -23 -48 -87q-74 -139 -195 -260q-46 -45 -86 -54q-41 5 -41 18q0 6 7 13z" />
<glyph unicode="n" horiz-adv-x="634" d="M-57 -2q0 48 321 796q50 118 58 132q8 16 25 16q18 0 46 -19q16 -11 16.5 -22t-15.5 -35q-37 -58 -66 -135l-38 -99l32 39q43 53 69 80.5t43.5 31t36.5 3.5q41 -3 43 -44q0 -20 -14 -54q-63 -145 -97 -439q-9 -80 -9 -141v-6q0 -64 31 -65q42 0 153 130.5t160 216.5 q13 21 37 22q25 -6 29 -32q0 -50 -114 -184t-170.5 -176.5t-113.5 -42.5q-106 1 -106 168q0 79 32 247.5t34 183.5q-106 -35 -203 -266q-20 -49 -64 -167q-43 -117 -61 -139q-22 -26 -58 -26t-37 26z" />
<glyph unicode="o" horiz-adv-x="400" d="M15 53q0 73 59.5 296t136.5 386q44 90 90 91q28 0 48 -16q35 -30 35 -116q0 -393 -140 -589l-14 -21q-87 -126 -140 -126q-65 7 -75 95zM109 166q0 -44 8 -44q42 0 131 180.5t89 330.5q0 68 -20 69q-50 -8 -129 -250t-79 -286z" />
<glyph unicode="p" horiz-adv-x="470" d="M-427 -760q0 9 24 14h2q80 18 152 105q16 19 27 38q121 192 216 581l112 472q77 328 95 373t40 51q18 6 46 6t32 -16q1 -5 1 -11.5t-8 -36.5t-8 -40q12 2 37 2q109 0 147 -58q15 -24 15 -54q0 -146 -103 -343t-204 -291q-58 -53 -97 -54q-94 -388 -198 -551 q-62 -97 -143.5 -152.5t-133 -55.5t-51.5 21zM114 82q178 189 257 412q30 84 39 162q-24 33 -72 33t-69 -23l-47 -183q-67 -266 -108 -401z" />
<glyph unicode="q" horiz-adv-x="620" d="M-44 185q0 30 35.5 84t138 154.5t128 127.5t67.5 65q141 129 191 141l26 3q55 -1 107 -58q-24 -24 -24 -76q9 0 18 -4q35 -18 35 -78q-15 -1 -69 -65t-60 -81t-80 -209.5t-84 -221.5q-173 -479 -173 -743q0 -146 50 -208q21 -21 22 -35t-8 -16q-13 1 -46.5 21.5 t-77.5 104.5q-42 82 -42 209v6q0 222 254 904l45 120q-20 -6 -37.5 -17t-142.5 -103.5t-193 -92.5q-14 0 -35 12q-45 26 -45 56zM200 301q34 0 188 128l58 44q150 113 150 151q-23 37 -32 37l-20 -11q-72 -45 -184 -139q-175 -148 -175 -195q0 -14 15 -15z" />
<glyph unicode="r" horiz-adv-x="611" d="M-46 13q0 4 26 61l55 127q58 134 136 357l133 376q5 14 32 15l26 1q48 0 48 -35q0 -17 -52 -150t-67 -205l-3 -30q0 -13 5 -15q3 1 25 44l26 51q6 9 12 24q22 41 52 41q52 -1 54 -43v-3l-2 -13l-2 -12q0 -24 -70 -192q-70 -166 -70 -236q0 -121 58 -122q56 0 164 125 q130 150 159 226q29 75 45 75q13 -1 14 -28q0 -26 -6 -40l-10 -27q-43 -110 -135 -229q-133 -175 -237 -175q-33 0 -60 17q-68 43 -68 162q0 39 18 120q17 79 17 87q0 7 -19 15q-36 16 -48 4q-10 -14 -88.5 -216t-107.5 -202q-9 0 -34.5 12t-25.5 33z" />
<glyph unicode="s" horiz-adv-x="412" d="M-30 144q1 30 31 70q108 143 208 330q23 43 23 50v144q0 41 40 63q17 9 32 9q62 -1 115 -37q25 -18 26 -40t1 -34q0 -145 -80 -149q-20 0 -38 10q8 -176 8 -343t-63 -237q-37 -40 -93 -40q-1 0 -1 -1q-55 -1 -84 39t-29 78q2 47 60 48q33 0 33 -40q0 -5 -1 -11 q-1 -8 -1 -14q0 -37 25 -37q54 0 66 137q6 58 6 158v17q0 112 -19 113q-8 0 -22 -26.5t-67.5 -108.5t-92.5 -122t-51 -44q-28 -10 -32 18zM318 649q0 -12 2 -17q34 6 39.5 23.5t5.5 35t-2 26.5q-30 0 -41 -42q-4 -14 -4 -26z" />
<glyph unicode="t" horiz-adv-x="533" d="M-93 714q1 15 23 19l325 27l214 360q37 62 67 62q12 0 28 -4q59 -13 59 -42.5t-60 -90.5t-74 -78q-47 -58 -102 -194l359 8q11 0 24 -19.5t14 -52.5q-1 -22 -57 -23q-166 -4 -402 -40q-17 -49 -55 -141q-167 -404 -167 -567q0 -81 31 -156q54 -126 161 -126 q83 0 139.5 42.5t133.5 139.5q24 31 50 22q25 -11 25 -43q0 -92 -106 -153.5t-227.5 -61.5t-210 89t-88.5 237q0 99 25 212t91 281.5t86 224.5q-207 0 -231 5q-74 16 -75 63z" />
<glyph unicode="u" horiz-adv-x="639" d="M32 51q0 116 82 389q116 385 146 407q6 3 14 3t22 -5q41 -15 42 -40q0 -9 -14 -49l-38 -109q-134 -384 -151 -508q74 113 178.5 322.5t126.5 250.5t33.5 70t21.5 32.5t37 3.5q40 0 40 -37q-3 -19 -42 -125q-40 -106 -86 -282q-45 -175 -45 -246q0 -73 14 -75 q44 0 158.5 125.5t167.5 226.5q22 40 42 41q10 -2 11 -16q0 -84 -111.5 -219t-191.5 -190l-20 -13q-34 -18 -50 -18h-17q-88 15 -90 148q0 66 20 136l22 81q-98 -215 -163.5 -295.5t-118.5 -80.5q-40 2 -40 72z" />
<glyph unicode="v" horiz-adv-x="480" d="M62 172q0 184 52 410q6 26 63 94q64 77 68.5 107t10.5 30l10 -5l25 -146q-45 -95 -93 -258t-49 -239q0 -22 13 -23q9 0 21 10q54 46 128.5 245t74.5 278q0 22 -24 106q30 -7 68 -7t131 22t138 24h8q40 0 64 -19q14 -11 14 -26q0 -14 -11 -31q-9 -14 -59 -16h-275 q18 -48 19 -61q-31 -168 -79 -322q-115 -363 -250 -363q-68 1 -68 190z" />
<glyph unicode="w" horiz-adv-x="635" d="M50 708v11q0 26 4 27q26 -8 48 -8t54 11q91 33 120 126q4 15 15.5 15t25.5 -3q57 -12 57 -44v-73q-40 -31 -77.5 -104.5t-71.5 -273.5l-6 -35l19 29q145 221 179 332q69 -24 125 -24q236 0 334 80q14 13 18 12q0 -2 -24 -66l-27 -69q-11 -25 -28 -25q-47 6 -57 6 q-71 0 -133 -35q-34 -208 -91 -399q-13 -40 -53 -111q-77 -135 -125 -135q-76 0 -77 200q0 22 1 63t1 59q-9 -5 -17.5 -16t-54.5 -85t-77 -74q-5 0 -16 6q-51 27 -51 81q0 86 71 280t79 227q-13 5 -29 5q-22 0 -50 -10q-50 -18 -55 -18q-30 2 -31 38zM358 150q0 -22 9 -22 q3 0 7 3q34 27 108 208q74 179 74 265q0 12 -4 26q-13 42 -37 42q-6 -2 -13 -13q-50 -86 -97 -255t-47 -254z" />
<glyph unicode="x" horiz-adv-x="419" d="M-178 -213q5 26 102.5 163.5t116.5 168t43 68.5q26 40 26 64q0 23 -8 87q-8 70 -8 112.5t11 123.5l14 104q3 33 5 37.5t11 9.5l109 56l11 3q12 -1 12 -33t-29 -136t-29 -147.5t6 -73.5q30 16 57 146.5t36 148t15 18.5q47 0 62 -50q5 -16 5 -31q0 -86 -48.5 -214 t-83.5 -163.5t-36 -61.5q0 -51 40 -106q43 -59 43 -78q-9 -21 -34 -21l-1 -1q-25 0 -51 35q-27 35 -40 42.5t-28 7.5q-43 0 -103 -83l-35 -50q-65 -99 -101 -127q-35 -28 -62 -28q-26 0 -28 9z" />
<glyph unicode="y" horiz-adv-x="614" d="M-113 -760q1 8 28 14.5t59 24.5q90 54 137 148q188 321 272 928q-29 -89 -118.5 -232.5t-165.5 -143.5q-40 0 -40 78q0 253 176 729q7 19 13 32q15 32 32.5 32t30.5 -3q52 -11 53 -42q0 -7 -14 -49l-49 -143q-117 -338 -140 -474q68 104 187.5 340t129.5 255q12 19 18 35 l8 21q12 28 35 28q56 0 59 -32q0 -10 -38 -152l-47 -169q-15 -57 -38.5 -188.5t-48.5 -240.5q-100 -434 -211 -609q-33 -52 -82 -100q-109 -108 -202 -108q-44 0 -44 21z" />
<glyph unicode="z" horiz-adv-x="798" d="M7 -6.5q0 13.5 5 20.5q82 100 348 402l284 323q-4 -1 -26 -11q-230 -99 -297 -99q-37 0 -58 15.5t-22 25.5q2 13 38 24q39 13 153 54q204 74 236 74q34 0 63.5 -21t29.5 -41.5t-31.5 -60.5t-166.5 -189t-173 -200l611 352q7 4 8 4q16 -5 17 -31v-12q0 -16 -4 -19 q-24 -16 -47 -29l-136 -85q-300 -186 -455.5 -302t-286.5 -258q-11 -10 -21 -10q-29 0 -49 30t-20 43.5z" />
<glyph unicode="{" horiz-adv-x="521" d="M126 -122q0 88 62.5 233t71.5 178.5t9 51t-2 22.5q-1 -8 -15 -8.5t-35.5 29.5t-22 52.5t63.5 107.5q108 143 108 238l-9 157q0 82 58 118q25 15 51 15q54 0 73 -53q8 -22 7.5 -58.5t-23.5 -37.5q-13 0 -25 16.5t-23 17.5q-39 0 -56 -47q-6 -17 -6 -33l22 -125 q-1 -158 -94 -314q22 -53 22 -124t-76 -215.5t-76 -209.5t12 -71.5t20 -6.5l55 15q44 0 44 -44.5t-46 -63.5q-24 -9 -50 -9q-120 0 -120 169z" />
<glyph unicode="|" horiz-adv-x="456" d="M81 -254.5q0 29.5 61 429.5t134 791q5 23 41.5 23.5t41.5 -33.5q5 -24 -22 -157.5t-55.5 -365t-67.5 -427.5t-57.5 -243t-47.5 -48q-28 1 -28 30.5z" />
<glyph unicode="}" horiz-adv-x="691" d="M85.5 -176.5q0.5 36.5 23.5 37.5q13 0 25 -16.5t23 -17.5q39 0 56 47q6 17 6 33l-22 125q1 158 94 314q-22 53 -22 122.5t58.5 183t76 158t17.5 97.5t-12 59.5t-20 6.5l-55 -15q-36 0 -43 39l-2 14q0 36 47 55q23 9 49 9q120 0 120 -169q0 -88 -62 -233 q-63 -145 -71 -179q-14 -56 -7 -73q2 8 14.5 8.5t35.5 -29.5t23 -52q0 -24 -64 -108q-107 -140 -109 -238l10 -157q0 -81 -57 -117q-25 -15 -52 -16q-54 0 -73 53q-8 22 -7.5 58.5z" />
<glyph unicode="~" horiz-adv-x="950" d="M126 341q0 139 189 142q77 0 179 -56.5t132 -68t59 -11.5q61 0 105 49q7 8 24 29.5t38 42.5t50 23q30 -2 30.5 -31t-17 -51t-17.5 -23q-83 -107 -208 -108q-57 0 -167.5 54.5t-147 63.5t-60.5 9q-71 -1 -110 -63q-3 -4 -13 -35q-9 -23 -37.5 -22.5t-28.5 56.5z" />
<glyph unicode="&#xa1;" horiz-adv-x="370" d="M58 -134q0 8 15 75.5t31 200.5q30 244 87 366q14 25 41 25.5t31 -25.5q0 -4 0.5 -18t-8.5 -54q-15 -67 -50 -267.5t-44.5 -239t-16.5 -71t-25 -36.5q-61 0 -61 44zM196 759q0 14 5 27q16 37 53.5 37t64.5 -19t27 -48.5t-10.5 -54t-18.5 -41.5q-4 16 -12 26.5t-49 10.5 q-60 0 -60 62z" />
<glyph unicode="&#xa2;" horiz-adv-x="591" d="M9.5 240q1.5 20 35.5 56q45 40 57 68l29 66q123 263 194 335q36 37 115 14l34 97q9 22 22 22q51 0 51 -32q0 -24 -14 -64l-29 -80q2 -10 2 -16q0 -46 -77 -201l-153 -480q149 43 379 273q30 32 42.5 31.5t13.5 -14.5t-19 -47q-52 -86 -160 -181q-161 -141 -277 -141 q-1 0 -3.5 0.5t-3.5 0.5q-14 -34 -30 -63t-39 -30q-2 0 -6 1q-18 5 -18 20t2 24l20 68q-108 64 -118 247q-20 0 -35.5 3t-14 23zM160 104q1 -71 34 -84q127 414 203 637q-3 17 -14 34q-27 -1 -63 -55q-65 -101 -112.5 -264t-47.5 -258v-10z" />
<glyph unicode="&#xa3;" horiz-adv-x="869" d="M107 471q0 20 16 23l161 15l17 65q4 16 8 34q89 353 192 517q33 52 81 100q109 108 203 108q44 0 44 -21q-1 -8 -26 -14q-164 -38 -268 -285q-44 -106 -97 -330l-39 -165q154 12 278 12q6 -1 16.5 -13.5t10.5 -41.5q-2 -16 -39 -17q-101 -4 -184.5 -15t-102.5 -13 q-73 -312 -92 -376q265 8 418 8q17 -1 32 -16q22 -23 22 -48q-1 -19 -89.5 -19.5t-251.5 -11t-195 -11.5q-17 -4 -43 -4t-26 24.5t23 100t89 350.5q-111 0 -134.5 12t-23.5 32z" />
<glyph unicode="&#xa4;" horiz-adv-x="738" d="M2.5 -11.5q0.5 33.5 51.5 115.5q69 111 117 147q11 61 57 232t131 359q-20 16 -92.5 112.5t-72.5 147.5q0 21 22 46t37 25t22.5 -3t25 -90t42.5 -131.5t39 -58.5q22 43 35.5 58t35 15t26.5 -1q20 -3 20.5 -39.5t34.5 -37.5l2 -4q60 53 101 255q0 1 1 5q6 29 21 29 t43.5 -18.5t28 -52t-52 -116t-96.5 -127.5l-18 -18l1 -1q-2 -1 -5 -3t-9 -4q-18 -18 -31 -115.5t-17 -121.5q-36 -246 -113 -353l-3 -5q19 -19 52 -63q100 -132 100 -183q0 -21 -22 -46t-37 -25t-22 3t-23.5 83.5t-40.5 127.5t-37 61q-72 -99 -128.5 -99t-65.5 72 q-37 -66 -67 -214q0 -1 -1 -5q-6 -29 -21 -29t-43.5 18.5t-28 52zM275.5 299.5q-1.5 -36.5 5.5 -36.5q36 0 128 181t92 310q-6 75 -23 83q-41 0 -121 -250.5t-81.5 -287z" />
<glyph unicode="&#xa5;" horiz-adv-x="640" d="M-4 235q0 13 16 16q131 13 222 20l30 89q-143 0 -166.5 7t-35.5 32l-2 12q0 13 16 16l218 20l14 41l-20 81q-73 305 -111 426.5t-37 138t4 23.5q13 24 43 23.5t37 -18.5l144 -491l129 404q4 12 13 44.5t20 47.5t72 15q28 -1 27 -27q0 -10 -2 -17l-221 -683q114 8 224 8 q6 -1 16.5 -13.5t10.5 -41.5q-2 -16 -39 -17q-98 -4 -241 -22l-30 -89q111 7 219 7q6 -1 16.5 -13.5t10.5 -41.5q-2 -16 -39 -17q-99 -4 -237 -22l-9 -26q-57 -165 -89.5 -217.5t-64.5 -88.5q-85 -93 -138 -93q-14 1 -14 11q1 11 13 27q89 118 176 348l11 30 q-145 0 -168.5 7t-35.5 32z" />
<glyph unicode="&#xa6;" horiz-adv-x="445" d="M66 -254.5q0 29.5 11 91.5l49 321q10 57 61 81q15 7 32 6t17.5 -26.5t-6.5 -59.5l-37 -187q-30 -154 -47 -200q-21 -57 -52 -57q-28 1 -28 30.5zM181 510q0 48 80 456q5 22 33 24q50 0 50 -44q0 -20 -19 -122t-45 -294q-2 -13 -16 -34.5t-46 -20t-37 34.5z" />
<glyph unicode="&#xa7;" horiz-adv-x="724" d="M79 -168q1 47 61 48q17 -1 23 -11.5t8 -50.5t25 -40q69 1 70 206l-20 530q0 21 16 45.5t74 24.5t97 -40q0 21 -21 555q0 23 19 47t57 24t67 -12q70 -28 71 -97q0 -149 -80 -149q-22 0 -38 10q8 -176 8 -304q0 -317 -150 -317q-9 0 -23 2q7 -184 7 -291.5t-21 -173.5 q-39 -123 -130 -123q-35 0 -66 19q-55 34 -54 98zM331.5 441q0.5 -27 2.5 -33q44 7 46 58l-3 27q-11 0 -28.5 -12.5t-17 -39.5zM498 1026q0 -27 2 -32q44 6 46 57q0 13 -3 27q-10 0 -27.5 -12.5t-17.5 -39.5z" />
<glyph unicode="&#xa8;" horiz-adv-x="1333" d="M347 873q33 21 54 53q18 24 32.5 105.5t21.5 109.5t35.5 28.5t50.5 -25t22 -42.5q0 -42 -97 -180q-26 -36 -48 -56q-26 -24 -40.5 -25.5t-25.5 8.5q-18 16 -5 24zM503 880q-10 10 1 19q44 23 76 84q10 18 23 91t20 101.5t35.5 29.5t50.5 -25t22 -42q0 -50 -97 -180 q-33 -44 -57 -68q-41 -40 -74 -10z" />
<glyph unicode="&#xa9;" horiz-adv-x="1186" d="M94 621q2 115 89 216q153 168 489 168q205 0 312 -119.5t107 -312.5v-13q-5 -205 -148.5 -320t-341.5 -115q-252 0 -379.5 139t-127.5 357zM168 587.5q0 -115.5 53 -212.5q102 -185 364 -185q160 0 272 87q133 104 133 286q0 104 -40 187q-84 170 -304 170 q-272 0 -400 -134q-78 -83 -78 -198.5zM289 451q1 15 31.5 42.5t39 48t23.5 50.5q90 188 148 246q13 15 42 16q107 0 112 -51q-1 -28 -49 -129t-75 -104q-12 2 -14 9q0 5 4 11q48 66 47 152q0 32 -21 45q-33 -4 -76.5 -95t-62.5 -173t-19 -99v-18q0 -97 50 -100 q59 0 140.5 47t219.5 176q21 28 33.5 29t14.5 -10q0 -7 -8 -22q-31 -59 -115 -136q-142 -130 -255 -130q-56 0 -105.5 42.5t-60.5 135.5h-23q-11 1 -21 17z" />
<glyph unicode="&#xaa;" horiz-adv-x="688" d="M299 604.5q0 25.5 48 130.5q77 170 165 223q32 19 61 20l35 -4q7 0 16.5 9t25.5 9t21.5 -8.5t5.5 -12.5t-6 -17q-5 -13 -7 -18l-10 -31q-88 -288 -56 -292q39 0 120 102q42 53 55.5 79.5t23.5 27.5q10 -2 11 -11q-6 -34 -62 -114q-92 -130 -159 -131q-53 0 -53 74 q0 33 14.5 87.5t16.5 66.5q-19 -24 -84.5 -121t-90.5 -116t-36 -19q-38 0 -51 31q-4 10 -4 35.5zM371 611q132 172 229 319q-103 -17 -174 -144q-51 -92 -55 -175z" />
<glyph unicode="&#xab;" horiz-adv-x="1034" d="M93 320q-30 47 12 67q7 3 19 10l45 26q207 119 311.5 169.5t108.5 50.5q13 -1 13.5 -22t-16 -44.5t-61 -49t-69.5 -41.5t-127.5 -65t-143.5 -72q49 -17 143.5 -69.5t118.5 -62.5q60 -25 60 -81q-1 -17 -14 -19q-31 2 -102 39q-165 96 -228 127q-65 32 -70 37zM397 320 q-30 47 12 67q7 3 19 10l43 24q216 123 317 172.5t105 49.5q13 -1 13.5 -22t-16 -44.5t-61 -49t-69.5 -41.5t-127.5 -65t-143.5 -72q49 -17 143.5 -69.5t118.5 -62.5q60 -25 60 -81q-1 -17 -14 -19q-31 2 -102 39q-165 96 -228 127q-65 32 -70 37z" />
<glyph unicode="&#xac;" horiz-adv-x="973" d="M147 707q0 8 18 8q428 26 630 26q22 0 31 -35l1 -2v-3l-1 -2q-5 -56 -35 -159l-33 -113q-3 -6 -21.5 -5.5t-19.5 12.5q0 42 24.5 132.5t43.5 123.5h-1l-400 -23q-175 0 -201.5 4.5t-34.5 25.5q-1 4 -1 10z" />
<glyph unicode="&#xad;" horiz-adv-x="669" d="M133 429q2 13 11 16q252 33 374 33q14 -9 18 -52q-1 -18 -26 -18q-63 -3 -137.5 -16t-132.5 -13t-80 5q-26 16 -27 45z" />
<glyph unicode="&#xae;" horiz-adv-x="1204" d="M105 621q2 115 89 216q153 168 489 168q205 0 312 -119.5t107 -312.5v-16q-6 -204 -148.5 -318t-340.5 -114q-253 0 -380.5 139.5t-127.5 356.5zM179 587.5q0 -115.5 53 -211.5q102 -186 365 -186q159 0 281.5 95t122.5 278q0 103 -39 186q-83 171 -305 171 q-272 0 -400 -134q-78 -83 -78 -198.5zM342 352.5q0 16.5 32.5 149.5t64 229t33.5 100q19 30 94 30q25 0 50 -6q73 -19 73 -71q-1 -63 -107 -104q27 -96 56 -182q25 -76 83 -157q40 -48 100 -59q12 -5 14 -10q-1 -5 -32 -5q-75 1 -147 75t-106 200l-33 118q-8 -2 -31 -7 q-14 -44 -48.5 -176t-39.5 -146.5t-11 -15.5q-10 0 -27.5 10.5t-17.5 27zM493 691q1 0 6 1q123 26 123 92q0 3 -1 7q-6 30 -52 30q-21 0 -43 -10q-1 -3 -8.5 -41.5t-24.5 -78.5z" />
<glyph unicode="&#xaf;" horiz-adv-x="932" d="M57 896q0 10 18 14h3l301 13q285 13 363 13h89q29 0 36 -43q-1 -13 -53 -13l-474 -24q-187 0 -233.5 7.5t-49.5 32.5z" />
<glyph unicode="&#xb0;" horiz-adv-x="620" d="M273 857.5q0 58.5 19 106.5q38 94 122 94q26 0 49 -9q60 -25 60 -88t-27 -120q-44 -95 -122 -95q-31 0 -56 19q-45 34 -45 92.5zM318 846q4 -44 34 -51q34 1 62 58t28 102t-36 47q-34 -1 -61 -49.5t-27 -106.5z" />
<glyph unicode="&#xb1;" horiz-adv-x="921" d="M120 46q0 14 14 16h2q381 36 554 36q17 0 25 -41q2 -9 2 -14q-1 -17 -65 -18.5t-175.5 -15.5t-204.5 -14q-92 1 -116 7q-36 10 -36 44zM192 446q0 14 14 16h2q144 14 250 22q45 231 57 246q10 10 38.5 10.5t28.5 -22.5l-40 -228q125 8 220 8q17 0 25 -41q2 -9 2 -14 q-1 -17 -39 -17q-105 -4 -220 -19q-3 -22 -27 -116.5t-37 -119t-36.5 -24.5t-26.5 11q0 32 39 238q-15 -1 -103 -1q-87 1 -111 7q-36 10 -36 44z" />
<glyph unicode="&#xb2;" horiz-adv-x="623" d="M304 566q0 31 18 57q5 8 108 130.5t125.5 163t22.5 60.5v3q-52 -17 -100 -54q-11 -9 -26.5 -9t-15.5 10t17 25q68 60 112 60q28 0 43.5 -17t15.5 -34q0 -39 -61 -112q-6 -7 -14.5 -17t-11.5 -14l-184 -222q104 33 143 33t39 -20q-1 -5 -5 -5l-31 11q-30 0 -67 -32 q-6 -5 -28 -25q-40 -37 -73 -37q-19 0 -25 28q-2 8 -2 17z" />
<glyph unicode="&#xb3;" horiz-adv-x="669" d="M345 486q0 11 6 21.5t18.5 11t53.5 33.5t90 104q67 97 67 160q0 12 -11 13l-87 -10q-9 0 -19.5 18.5t-11.5 35.5q-4 8 65.5 43.5t69.5 43.5q-1 8 -15.5 8t-64.5 -19t-54 -19h-9q-43 3 -43 13q1 7 29 20q90 44 140 44q81 0 82 -42q0 -11 -11.5 -23t-57.5 -33.5t-60 -35.5 q20 4 33 4q64 -1 65 -70q0 -98 -90 -205q-64 -76 -140 -114q-22 -11 -33 -11t-12 9z" />
<glyph unicode="&#xb4;" horiz-adv-x="443" d="M67 907q1 9 7 11q44 4 82 35q45 27 143 185q13 15 24 16q27 0 44 -45q6 -18 7 -31q0 -52 -144 -144q-99 -62 -117.5 -62t-35.5 15q-11 11 -10 20z" />
<glyph unicode="&#xb6;" horiz-adv-x="1333" d="M-85 -762q1 11 32 18.5t66 27.5q82 48 141 135q140 221 252 666q10 37 14 57q-110 33 -183 129q-101 136 -101 350v19q5 194 92.5 334.5t221.5 145.5q45 2 201 10.5t611 8.5q13 -1 26 -18q19 -30 19 -65q-1 -26 -65 -27l-126 -5l-7 -26q-43 -139 -109.5 -434t-92.5 -394 q-118 -457 -269 -714q-41 -70 -108 -132q-118 -108 -220 -108q-49 0 -49 22q1 10 35 18.5t77 36.5q78 51 125 126q140 221 252 666l106 434q105 435 125 497q-122 -7 -218 -17q-33 -105 -43 -148l-27 -121q-105 -461 -131 -560q-118 -457 -269 -714q-41 -69 -106 -130 q-118 -110 -222 -110q-50 0 -50 22z" />
<glyph unicode="&#xb7;" horiz-adv-x="446" d="M141 502q0 14 1 21.5t31 71.5q6 -19 14.5 -30t54.5 -11q67 0 67 -69q0 -17 -7 -33q-19 -39 -60.5 -39t-71 22.5t-29.5 66.5z" />
<glyph unicode="&#xb8;" horiz-adv-x="739" d="M234 -83q0 24 15 48q33 51 95 51q12 0 26 -4q46 -14 46 -47q-1 -2 -5 -3l-46 8q-8 0 -20 -4q-38 -13 -38 -35q1 -10 62 -24q73 -22 73 -86q0 -20 -24.5 -53.5t-57.5 -33.5t-35 7q1 5 27 27.5t26 36.5t-9.5 29t-45 25t-43.5 13q-46 15 -46 45z" />
<glyph unicode="&#xb9;" horiz-adv-x="550" d="M333.5 801.5q-0.5 16.5 22 44.5t27.5 36l22 31q74 99 82 100q41 0 41 -24q0 -21 -140 -410q-29 -76 -53 -78q-13 6 11 73l41 115q54 143 65 204q-20 -16 -51.5 -58.5t-44.5 -56.5q-22 7 -22.5 23.5z" />
<glyph unicode="&#xba;" horiz-adv-x="688" d="M261 704.5q0 88.5 37 166.5q60 123 176 123q48 0 86 -20q78 -40 78 -137.5t-49 -189.5q-66 -124 -174 -124q-56 0 -105 46.5t-49 135zM329.5 673q0.5 -76 50.5 -76q58 1 97.5 93.5t39 154.5t-53.5 64q-59 -1 -96.5 -80.5t-37 -155.5z" />
<glyph unicode="&#xbb;" horiz-adv-x="1023" d="M112.5 139q-0.5 21 12.5 41q19 27 64 52.5t69.5 40.5t124.5 63t147 74q-51 17 -147 70q-95 54 -117 64q-58 26 -58 80q1 17 15 19q30 -2 98 -39q130 -77 292 -158h2q16 -16 16.5 -36.5t-4 -25.5t-25 -15.5t-140.5 -79t-224 -120t-114.5 -51.5t-11 21zM416.5 139 q-0.5 21 12.5 41q19 27 64 52.5t69.5 40.5t124.5 63t147 74q-51 17 -147 70q-95 54 -117 64q-58 26 -58 80q1 17 15 19q30 -2 98 -39q162 -96 226.5 -126.5t65.5 -31.5q19 -9 19 -33t-4.5 -29t-25 -15.5t-140.5 -79t-224 -120t-114.5 -51.5t-11 21z" />
<glyph unicode="&#xbc;" horiz-adv-x="1010" d="M101 760q0 44 157 222q36 41 51 56q36 42 101 44q20 0 23.5 -7t3.5 -12.5t-11 -33.5l-141 -437q-31 -97 -77 -104q-30 4 2 102q11 37 47.5 149t59.5 194q-68 -58 -136 -149q-3 -3 -13 -17q-13 -18 -39 -17.5t-28 10.5zM203 -22q-3 14 5 36q347 797 411 930l88 181 q8 16 27 16q50 -1 52 -47q0 -18 -61 -143.5t-148.5 -342.5t-123.5 -290q-142 -286 -170.5 -323t-50 -37.5t-29.5 20.5zM560 214q1 20 29 55q107 135 235 264q21 16 61 15.5t41 -17.5q0 -8 -52.5 -151.5t-110.5 -275.5t-64 -133q-9 2 -9 53t38 146.5t42 107.5 q-166 -75 -186.5 -74.5t-23.5 10.5zM690 301l92 41l50 112q-73 -73 -142 -153z" />
<glyph unicode="&#xbd;" horiz-adv-x="1037" d="M101 760q0 46 199 268l1 1q41 53 109 53q22 0 26 -12q1 -2 1 -7.5t-11 -33.5l-141 -437q-33 -103 -77 -104q-16 2 -16 24.5t14 68.5l39 118q49 152 72 234q-63 -54 -127 -138q-36 -46 -60 -46q-28 0 -29 11zM203 -22q-3 14 5 36q347 797 411 930l88 181q8 16 27 16 q50 -1 52 -47q0 -18 -61 -143.5t-148.5 -342.5t-123.5 -290q-142 -286 -170.5 -323t-50 -37.5t-29.5 20.5zM545 21v29q1 24 21 47l148 174q121 142 121 191q-26 -2 -64 -25t-56 -22.5t-19 9.5q2 13 19 29q99 85 143.5 85t64.5 -31q8 -13 8 -27q0 -38 -68 -122l-28 -36 q-27 -31 -97 -123l-84 -109q71 20 128 20q27 0 37 -26q5 -15 -5 -17l-32 10q-36 0 -98 -43.5t-81 -47.5t-29 -5q-25 0 -29 40z" />
<glyph unicode="&#xbe;" horiz-adv-x="994" d="M104.5 461q0.5 11 11.5 22l22 16q47 31 122.5 129t75.5 177q-1 11 -11 13l-67 -8q-8 0 -21 18t-13 38q1 12 63 45.5t62 42.5q-1 7 -15.5 7.5t-61 -16.5t-48.5 -17q-51 1 -51.5 10t11.5 17h1q109 55 165 55q86 0 87 -45q-4 -23 -64 -53.5t-74 -44.5q24 5 35 5 q63 -5 71 -75q0 -90 -73.5 -190t-171.5 -149q-30 -16 -43 -12t-12.5 15zM203 -22q-3 14 5 36q347 797 411 930l88 181q8 16 27 16q50 -1 52 -47q0 -18 -61 -143.5t-148.5 -342.5t-123.5 -290q-142 -286 -170.5 -323t-50 -37.5t-29.5 20.5zM512 214q1 20 29 55 q107 135 235 264q21 16 61 15.5t41 -17.5q0 -8 -52.5 -151.5t-110.5 -275.5t-64 -133q-9 2 -9 53t38 146.5t42 107.5q-166 -75 -186.5 -74.5t-23.5 10.5zM642 301l92 41l50 112q-73 -73 -142 -153z" />
<glyph unicode="&#xbf;" horiz-adv-x="689" d="M90 -170q0 100 101 202q20 20 60 56t56 52q77 69 106.5 123.5t42.5 138.5q15 98 35 98t26 -96v-13q0 -123 -66 -213q-29 -42 -132.5 -153.5t-134 -147t-30.5 -85.5t48 -74q20 -9 55 -9.5t78 35t52 36.5q23 0 31 -45q1 -7 1 -13q0 -47 -43 -73t-88 -26q-99 0 -157 79 q-41 57 -41 128zM439 719q0 14 6 27q16 37 53 37t65 -19q46 -32 14 -107l-17 -37q-4 16 -11.5 26.5t-49.5 10.5q-60 0 -60 62z" />
<glyph unicode="&#xc0;" horiz-adv-x="631" d="M-75 -80q0 17 29 60t34 49l223 350q-153 1 -188 16t-35 48q0 15 22 19q164 16 268 24l223 370l64 275q8 36 39 36.5t54 -4.5q70 -16 70 -64q0 -7 -33 -154t-113 -440q83 4 220 4q10 -1 23 -19.5t14 -49.5q-1 -21 -83 -23.5t-201 -13.5q-108 -417 -108 -478q2 -16 31 -44 q29 -23 30 -44q0 -63 -44 -63q-24 0 -43 16q-45 39 -45 121.5t11.5 168.5t69.5 312q-92 -11 -140 -13q-159 -267 -328 -464q-13 -12 -37.5 -11.5t-26.5 16.5zM382 493l102 7q19 85 28 148q-3 27 -45.5 -25.5t-64.5 -92.5zM548 1417q0 17 10 35q20 38 51 38q9 -1 16 -13 t41.5 -86t68 -116t83.5 -55l1 -1q6 -3 6 -9t-10 -18q-8 -12 -26 -12q-30 0 -135.5 92.5t-105.5 144.5z" />
<glyph unicode="&#xc1;" horiz-adv-x="631" d="M-75 -80q0 17 29 60t34 49l223 350q-153 1 -188 16t-35 48q0 15 22 19q164 16 268 24l223 370l64 275q8 36 39 36.5t54 -4.5q70 -16 70 -64q0 -7 -33 -154t-113 -440q83 4 220 4q10 -1 23 -19.5t14 -49.5q-1 -21 -83 -23.5t-201 -13.5q-108 -417 -108 -478q2 -16 31 -44 q29 -23 30 -44q0 -63 -44 -63q-24 0 -43 16q-45 39 -45 121.5t11.5 168.5t69.5 312q-92 -11 -140 -13q-159 -267 -328 -464q-13 -12 -37.5 -11.5t-26.5 16.5zM382 493l102 7q19 85 28 148q-3 27 -45.5 -25.5t-64.5 -92.5zM517 1219q1 9 7 11q44 4 82 35q45 27 143 185 q13 15 24 16q27 0 44 -45q6 -18 7 -31q0 -52 -144 -144q-99 -62 -117.5 -62t-35.5 15q-11 11 -10 20z" />
<glyph unicode="&#xc2;" horiz-adv-x="631" d="M-75 -80q0 17 29 60t34 49l223 350q-153 1 -188 16t-35 48q0 15 22 19q164 16 268 24l223 370l64 275q8 36 39 36.5t54 -4.5q70 -16 70 -64q0 -7 -33 -154t-113 -440q83 4 220 4q10 -1 23 -19.5t14 -49.5q-1 -21 -83 -23.5t-201 -13.5q-108 -417 -108 -478q2 -16 31 -44 q29 -23 30 -44q0 -63 -44 -63q-24 0 -43 16q-45 39 -45 121.5t11.5 168.5t69.5 312q-92 -11 -140 -13q-159 -267 -328 -464q-13 -12 -37.5 -11.5t-26.5 16.5zM382 493l102 7q19 85 28 148q-3 27 -45.5 -25.5t-64.5 -92.5zM552 1217.5q0 33.5 26.5 59t80 72t79.5 73 t45.5 26.5t29.5 -19t10 -28t-7 -58.5t-12 -81t-27.5 -49.5t-36.5 -18q-10 2 -10.5 24t15.5 108q-66 -50 -143 -124q-23 -20 -30 -20q-20 2 -20 35.5z" />
<glyph unicode="&#xc3;" horiz-adv-x="631" d="M-75 -80q0 17 29 60t34 49l223 350q-153 1 -188 16t-35 48q0 15 22 19q164 16 268 24l223 370l64 275q8 36 39 36.5t54 -4.5q70 -16 70 -64q0 -7 -33 -154t-113 -440q83 4 220 4q10 -1 23 -19.5t14 -49.5q-1 -21 -83 -23.5t-201 -13.5q-108 -417 -108 -478q2 -16 31 -44 q29 -23 30 -44q0 -63 -44 -63q-24 0 -43 16q-45 39 -45 121.5t11.5 168.5t69.5 312q-92 -11 -140 -13q-159 -267 -328 -464q-13 -12 -37.5 -11.5t-26.5 16.5zM382 493l102 7q19 85 28 148q-3 27 -45.5 -25.5t-64.5 -92.5zM432 1214q2 13 38 13q127 0 184 74q33 43 54 113 q25 83 59.5 83t57.5 -28.5t23 -46t-10 -42.5q-44 -104 -159 -159q-77 -36 -161.5 -36t-85.5 29z" />
<glyph unicode="&#xc4;" horiz-adv-x="631" d="M-75 -80q0 17 29 60t34 49l223 350q-153 1 -188 16t-35 48q0 15 22 19q164 16 268 24l223 370l64 275q8 36 39 36.5t54 -4.5q70 -16 70 -64q0 -7 -33 -154t-113 -440q83 4 220 4q10 -1 23 -19.5t14 -49.5q-1 -21 -83 -23.5t-201 -13.5q-108 -417 -108 -478q2 -16 31 -44 q29 -23 30 -44q0 -63 -44 -63q-24 0 -43 16q-45 39 -45 121.5t11.5 168.5t69.5 312q-92 -11 -140 -13q-159 -267 -328 -464q-13 -12 -37.5 -11.5t-26.5 16.5zM382 493l102 7q19 85 28 148q-3 27 -45.5 -25.5t-64.5 -92.5zM552 1224q33 21 54 53q18 24 32.5 105.5t21.5 109.5 t35.5 28.5t50.5 -25t22 -42.5q0 -42 -97 -180q-26 -36 -48 -56q-26 -24 -40.5 -25.5t-25.5 8.5q-18 16 -5 24zM708 1231q-10 10 1 19q44 23 76 84q10 18 23 91t20 101.5t35.5 29.5t50.5 -25t22 -42q0 -50 -97 -180q-33 -44 -57 -68q-41 -40 -74 -10z" />
<glyph unicode="&#xc5;" horiz-adv-x="631" d="M-75 -80q0 17 29 60t34 49l223 350q-153 1 -188 16t-35 48q0 15 22 19q164 16 268 24l223 370l64 275q8 36 39 36.5t54 -4.5q70 -16 70 -64q0 -7 -33 -154t-113 -440q83 4 220 4q10 -1 23 -19.5t14 -49.5q-1 -21 -83 -23.5t-201 -13.5q-108 -417 -108 -478q2 -16 31 -44 q29 -23 30 -44q0 -63 -44 -63q-24 0 -43 16q-45 39 -45 121.5t11.5 168.5t69.5 312q-92 -11 -140 -13q-159 -267 -328 -464q-13 -12 -37.5 -11.5t-26.5 16.5zM382 493l102 7q19 85 28 148q-3 27 -45.5 -25.5t-64.5 -92.5zM571 1322q0 18 9 37q34 69 149 69q30 0 53 -10 q61 -26 62 -109q0 -40 -23 -72q-38 -51 -111 -51q-139 0 -139 136zM622 1313q0 -77 77 -77q15 0 29 4q47 15 47 65q0 65 -65 65q-33 0 -60.5 -14.5t-27.5 -42.5z" />
<glyph unicode="&#xc6;" horiz-adv-x="994" d="M-22 -80q0 17 30 60l256 399q-153 1 -188 16t-35 48q0 15 22 19q164 16 268 24l223 370l64 275q8 36 48 37q69 -2 102 -36q117 -1 261 -6q11 -2 25 -18q20 -22 13 -50q-7 -13 -39 -13h-55q-25 1 -38.5 1t-164.5 -3q-58 -259 -135 -538q83 4 220 4q10 -1 23.5 -19.5 t13.5 -49.5q-1 -21 -83 -23.5t-201 -13.5q-47 -176 -84 -339q79 -1 325 -7q12 0 25.5 -17.5t13.5 -46.5q-1 -17 -38 -17h-110.5t-132 -3t-105.5 -4q-2 -16 -0.5 -38t30.5 -50q29 -23 29 -44q0 -63 -44 -63q-24 0 -42 16q-45 39 -45.5 121.5t11.5 168.5t69 312 q-92 -11 -140 -13q-159 -267 -328 -464q-13 -12 -37.5 -11.5t-26.5 16.5zM435 493l102 7q19 85 28 148q-3 28 -45.5 -25t-64.5 -93z" />
<glyph unicode="&#xc7;" horiz-adv-x="720" d="M106 253.5q0 188.5 93.5 438t246.5 393.5q35 31 72 32q178 0 178 -115q0 -62 -95.5 -254.5t-133.5 -192.5q-27 0 -27 23q1 11 18.5 32t50.5 87q72 147 72 236q-1 16 -9 35q-18 42 -49.5 42t-68.5 -52q-85 -125 -196 -492q-44 -145 -44 -280q0 -39 17 -80q34 -80 102 -80 q119 0 243 96q41 31 128 105.5t96 74.5q4 -1 6 -9q-1 -73 -171 -224q-148 -123 -288 -123h-1q-5 -7 -5 -15.5t36 -17.5l26 -6q73 -22 73 -86q0 -20 -24.5 -53.5t-57.5 -33.5t-35 7q1 5 27 27.5t25.5 36.5t-8.5 28.5t-44.5 25t-44.5 13.5q-46 15 -46 45q0 18 8 36 q-54 12 -91 44q-79 68 -79 256.5z" />
<glyph unicode="&#xc8;" horiz-adv-x="643" d="M34 -25q1 21 17 48q31 145 228 750q-38 -2 -48 -2q-2 2 -2 5q0 44 21 66.5t35.5 23t24.5 0.5l59 176q7 62 39 84q11 7 81 7t288 -7q25 -1 36 -43q3 -10 3 -18q0 -19 -50 -20q-23 0 -47 0.5t-73 0.5t-167 -4l-56 -177q101 -2 212 -6q25 -1 36 -45q3 -11 3 -18 q-4 -19 -39 -19l-104 2q-62 0 -137 -2l-241 -714q57 -1 128 -2t165 -4q39 -1 39 -64q-2 -18 -38.5 -17.5t-66.5 0.5h-45l-284 -8q-16 1 -17 7zM453 1418q0 17 10 35q20 38 51 38q9 -1 16 -13t41.5 -86t68 -116t83.5 -55l1 -1q6 -3 6 -9t-10 -18q-8 -12 -26 -12 q-30 0 -135.5 92.5t-105.5 144.5z" />
<glyph unicode="&#xc9;" horiz-adv-x="643" d="M34 -25q1 21 17 48q31 145 228 750q-38 -2 -48 -2q-2 2 -2 5q0 44 21 66.5t35.5 23t24.5 0.5l59 176q7 62 39 84q11 7 81 7t288 -7q25 -1 36 -43q3 -10 3 -18q0 -19 -50 -20q-23 0 -47 0.5t-73 0.5t-167 -4l-56 -177q101 -2 212 -6q25 -1 36 -45q3 -11 3 -18 q-4 -19 -39 -19l-104 2q-62 0 -137 -2l-241 -714q57 -1 128 -2t165 -4q39 -1 39 -64q-2 -18 -38.5 -17.5t-66.5 0.5h-45l-284 -8q-16 1 -17 7zM468 1225q1 9 7 11q44 4 82 35q45 27 143 185q13 15 24 16q27 0 44 -45q6 -18 7 -31q0 -52 -144 -144q-99 -62 -117.5 -62 t-35.5 15q-11 11 -10 20z" />
<glyph unicode="&#xca;" horiz-adv-x="643" d="M34 -25q1 21 17 48q31 145 228 750q-38 -2 -48 -2q-2 2 -2 5q0 44 21 66.5t35.5 23t24.5 0.5l59 176q7 62 39 84q11 7 81 7t288 -7q25 -1 36 -43q3 -10 3 -18q0 -19 -50 -20q-23 0 -47 0.5t-73 0.5t-167 -4l-56 -177q101 -2 212 -6q25 -1 36 -45q3 -11 3 -18 q-4 -19 -39 -19l-104 2q-62 0 -137 -2l-241 -714q57 -1 128 -2t165 -4q39 -1 39 -64q-2 -18 -38.5 -17.5t-66.5 0.5h-45l-284 -8q-16 1 -17 7zM496 1216.5q0 33.5 26.5 59t80 72t79.5 73t45.5 26.5t29.5 -19t10 -28t-7 -58.5t-12 -81t-27.5 -49.5t-36.5 -18q-10 2 -10.5 24 t15.5 108q-66 -50 -143 -124q-23 -20 -30 -20q-20 2 -20 35.5z" />
<glyph unicode="&#xcb;" horiz-adv-x="643" d="M34 -25q1 21 17 48q31 145 228 750q-38 -2 -48 -2q-2 2 -2 5q0 44 21 66.5t35.5 23t24.5 0.5l59 176q7 62 39 84q11 7 81 7t288 -7q25 -1 36 -43q3 -10 3 -18q0 -19 -50 -20q-23 0 -47 0.5t-73 0.5t-167 -4l-56 -177q101 -2 212 -6q25 -1 36 -45q3 -11 3 -18 q-4 -19 -39 -19l-104 2q-62 0 -137 -2l-241 -714q57 -1 128 -2t165 -4q39 -1 39 -64q-2 -18 -38.5 -17.5t-66.5 0.5h-45l-284 -8q-16 1 -17 7zM490 1227q33 21 54 53q18 24 32.5 105.5t21.5 109.5t35.5 28.5t50.5 -25t22 -42.5q0 -42 -97 -180q-26 -36 -48 -56 q-26 -24 -40.5 -25.5t-25.5 8.5q-18 16 -5 24zM646 1234q-10 10 1 19q44 23 76 84q10 18 23 91t20 101.5t35.5 29.5t50.5 -25t22 -42q0 -50 -97 -180q-33 -44 -57 -68q-41 -40 -74 -10z" />
<glyph unicode="&#xcc;" horiz-adv-x="269" d="M-18 -221q0 9 12 27q115 175 204 533l181 736q4 15 10.5 49t21.5 46t54.5 11t40 -19t-112 -473t-151 -582t-70.5 -185t-86.5 -106t-78.5 -47t-25 10zM347 1421q0 17 10 35q20 38 51 38q9 -1 16 -13t41.5 -86t68 -116t83.5 -55l1 -1q6 -3 6 -9t-10 -18q-8 -12 -26 -12 q-30 0 -135.5 92.5t-105.5 144.5z" />
<glyph unicode="&#xcd;" horiz-adv-x="269" d="M-18 -221q0 9 12 27q115 175 204 533l181 736q4 15 10.5 49t21.5 46t54.5 11t40 -19t-112 -473t-151 -582t-70.5 -185t-86.5 -106t-78.5 -47t-25 10zM292 1219q1 9 7 11q44 4 82 35q45 27 143 185q13 15 24 16q27 0 44 -45q6 -18 7 -31q0 -52 -144 -144 q-99 -62 -117.5 -62t-35.5 15q-11 11 -10 20z" />
<glyph unicode="&#xce;" horiz-adv-x="269" d="M-18 -221q0 9 12 27q115 175 204 533l181 736q4 15 10.5 49t21.5 46t54.5 11t40 -19t-112 -473t-151 -582t-70.5 -185t-86.5 -106t-78.5 -47t-25 10zM337 1219.5q0 33.5 26.5 59t80 72t79.5 73t45.5 26.5t29.5 -19t10 -28t-7 -58.5t-12 -81t-27.5 -49.5t-36.5 -18 q-10 2 -10.5 24t15.5 108q-66 -50 -143 -124q-23 -20 -30 -20q-20 2 -20 35.5z" />
<glyph unicode="&#xcf;" horiz-adv-x="269" d="M-18 -221q0 9 12 27q115 175 204 533l181 736q4 15 10.5 49t21.5 46t54.5 11t40 -19t-112 -473t-151 -582t-70.5 -185t-86.5 -106t-78.5 -47t-25 10zM336 1224q33 21 54 53q18 24 32.5 105.5t21.5 109.5t35.5 28.5t50.5 -25t22 -42.5q0 -42 -97 -180q-26 -36 -48 -56 q-26 -24 -40.5 -25.5t-25.5 8.5q-18 16 -5 24zM492 1231q-10 10 1 19q44 23 76 84q10 18 23 91t20 101.5t35.5 29.5t50.5 -25t22 -42q0 -50 -97 -180q-33 -44 -57 -68q-41 -40 -74 -10z" />
<glyph unicode="&#xd0;" horiz-adv-x="642" d="M110 628q2 13 11 16q111 15 194 23q64 202 95 285l-45 22q18 113 106 147q28 10 59 10q86 0 152 -64q65 -65 65 -145q0 -104 -45 -240q-108 -323 -382 -628l-69 -73q-39 -35 -53 -37q-43 1 -83 83q13 37 79 249l94 304q-26 -2 -77.5 -2t-73.5 5q-26 16 -27 45zM251 139 q77 81 152 194q234 351 234 673q0 35 -19 41q-6 1 -12 1q-63 -1 -107 -29q0 -83 -31.5 -187.5t-37.5 -127.5l-9 -29q52 2 74 2q14 -9 18 -52q-1 -18 -35.5 -19.5t-82.5 -6.5q-115 -343 -144 -460z" />
<glyph unicode="&#xd1;" horiz-adv-x="618" d="M-18 -373q0 5 20 47q33 67 192 596q242 809 251 883q10 52 44 52q73 0 78 -37q-3 -32 -45 -216.5t-45.5 -214t-17 -119t-13.5 -120t2 -38.5q25 83 80 299t80.5 286.5t29.5 84.5q81 244 128 244q13 0 36 -16.5t23 -39.5t-20 -57q-68 -116 -166 -379q-191 -514 -201 -867 v-1q-4 -134 -38 -134q-14 0 -24 2q-24 6 -24 39l10 470q0 36 -2 84q-224 -646 -277 -773q-41 -78 -95 -82q-6 2 -6 7zM410 1330q2 13 38 13q127 0 184 74q33 43 54 113q25 83 59.5 83t57.5 -28.5t23 -46t-10 -42.5q-44 -104 -159 -159q-77 -36 -161.5 -36t-85.5 29z" />
<glyph unicode="&#xd2;" horiz-adv-x="553" d="M119 79q0 121 80.5 426t178.5 522q20 43 23 51q38 74 93 74t76 -29q51 -61 57 -170t-4 -183q-53 -405 -196 -610l-20 -30q-115 -172 -188 -172q-100 0 -100 121zM234 162q1 -2 2.5 -15.5t11.5 -13.5q13 1 38 28q69 79 150 263q121 273 121 462q0 15 -3 38q-11 94 -30 93 q-73 -4 -213 -505q-77 -277 -77 -350zM425 1417q0 17 10 35q20 38 51 38q9 -1 16 -13t41.5 -86t68 -116t83.5 -55l1 -1q6 -3 6 -9t-10 -18q-8 -12 -26 -12q-30 0 -135.5 92.5t-105.5 144.5z" />
<glyph unicode="&#xd3;" horiz-adv-x="553" d="M119 79q0 121 80.5 426t178.5 522q20 43 23 51q38 74 93 74t76 -29q51 -61 57 -170t-4 -183q-53 -405 -196 -610l-20 -30q-115 -172 -188 -172q-100 0 -100 121zM234 162q1 -2 2.5 -15.5t11.5 -13.5q13 1 38 28q69 79 150 263q121 273 121 462q0 15 -3 38q-11 94 -30 93 q-73 -4 -213 -505q-77 -277 -77 -350zM386 1219q1 9 7 11q44 4 82 35q45 27 143 185q13 15 24 16q27 0 44 -45q6 -18 7 -31q0 -52 -144 -144q-99 -62 -117.5 -62t-35.5 15q-11 11 -10 20z" />
<glyph unicode="&#xd4;" horiz-adv-x="553" d="M119 79q0 121 80.5 426t178.5 522q20 43 23 51q38 74 93 74t76 -29q51 -61 57 -170t-4 -183q-53 -405 -196 -610l-20 -30q-115 -172 -188 -172q-100 0 -100 121zM234 162q1 -2 2.5 -15.5t11.5 -13.5q13 1 38 28q69 79 150 263q121 273 121 462q0 15 -3 38q-11 94 -30 93 q-73 -4 -213 -505q-77 -277 -77 -350zM419 1216.5q0 33.5 26.5 59t80 72t79.5 73t45.5 26.5t29.5 -19t10 -28t-7 -58.5t-12 -81t-27.5 -49.5t-36.5 -18q-10 2 -10.5 24t15.5 108q-66 -50 -143 -124q-23 -20 -30 -20q-20 2 -20 35.5z" />
<glyph unicode="&#xd5;" horiz-adv-x="553" d="M119 79q0 121 80.5 426t178.5 522q20 43 23 51q38 74 93 74t76 -29q51 -61 57 -170t-4 -183q-53 -405 -196 -610l-20 -30q-115 -172 -188 -172q-100 0 -100 121zM234 162q1 -2 2.5 -15.5t11.5 -13.5q13 1 38 28q69 79 150 263q121 273 121 462q0 15 -3 38q-11 94 -30 93 q-73 -4 -213 -505q-77 -277 -77 -350zM330 1214q2 13 38 13q127 0 184 74q33 43 54 113q25 83 59.5 83t57.5 -28.5t23 -46t-10 -42.5q-44 -104 -159 -159q-77 -36 -161.5 -36t-85.5 29z" />
<glyph unicode="&#xd6;" horiz-adv-x="553" d="M119 79q0 121 80.5 426t178.5 522q20 43 23 51q38 74 93 74t76 -29q51 -61 57 -170t-4 -183q-53 -405 -196 -610l-20 -30q-115 -172 -188 -172q-100 0 -100 121zM234 162q1 -2 2.5 -15.5t11.5 -13.5q13 1 38 28q69 79 150 263q121 273 121 462q0 15 -3 38q-11 94 -30 93 q-73 -4 -213 -505q-77 -277 -77 -350zM422 1224q33 21 54 53q18 24 32.5 105.5t21.5 109.5t35.5 28.5t50.5 -25t22 -42.5q0 -42 -97 -180q-26 -36 -48 -56q-26 -24 -40.5 -25.5t-25.5 8.5q-18 16 -5 24zM578 1231q-10 10 1 19q44 23 76 84q10 18 23 91t20 101.5t35.5 29.5 t50.5 -25t22 -42q0 -50 -97 -180q-33 -44 -57 -68q-41 -40 -74 -10z" />
<glyph unicode="&#xd7;" horiz-adv-x="887" d="M225 262q1 7 7 13l181 251q-109 239 -109 292q0 19 25 31.5t32 12.5q16 0 32 -36q41 -109 89 -208q75 99 158 195q6 5 23 5t33 -12.5t16 -26.5t-51 -76.5t-130 -184.5q24 -51 60.5 -155t36.5 -129.5t-20.5 -42.5t-27 -16t-12.5 12l-106 232l-19 -22 q-110 -128 -132 -142.5t-53.5 -14t-32.5 21.5z" />
<glyph unicode="&#xd8;" horiz-adv-x="553" d="M10 23q-26 10 1 53l136 214q17 82 45 189q88 331 186 548q20 43 23 51q38 74 93 74t82.5 -35t42.5 -104l57 83q9 13 22.5 11.5t22.5 -4.5q32 -15 29 -38.5t-38 -74.5l-83 -123q-1 -53 -6 -97q-53 -405 -196 -610l-51 -74q-91 -128 -157 -128q-100 0 -100 130 q-54 -73 -92 -71q-5 1 -17 6zM234 177q1 -44 14 -44q13 1 38 28q69 79 146 253t106 308l-71 -116q-121 -202 -167 -268l-51 -71q-15 -73 -15 -90zM329 574l226 344l-1 6q-11 94 -30 93q-69 -4 -195 -443z" />
<glyph unicode="&#xd9;" horiz-adv-x="753" d="M175 75q0 141 85 446t124.5 406.5t47.5 126.5q21 57 64 56.5t44 -41.5q0 -30 -23 -90q-189 -504 -232 -834q12 1 28 18q160 185 338 603q8 18 70 168.5t83 162.5q6 3 28 3.5t31 -11t9 -36.5t-16 -66q-100 -248 -173 -528q-35 -139 -35 -258t4 -140t-12.5 -40t-29 -26.5 t-34.5 1.5q-22 8 -32 30q-11 24 1.5 137t34.5 211l25 108q-116 -254 -205 -378t-173 -125q-52 2 -52 96zM408 1417q0 17 10 35q20 38 51 38q9 -1 16 -13t41.5 -86t68 -116t83.5 -55l1 -1q6 -3 6 -9t-10 -18q-8 -12 -26 -12q-30 0 -135.5 92.5t-105.5 144.5z" />
<glyph unicode="&#xda;" horiz-adv-x="753" d="M175 75q0 141 85 446t124.5 406.5t47.5 126.5q21 57 64 56.5t44 -41.5q0 -30 -23 -90q-189 -504 -232 -834q12 1 28 18q160 185 338 603q8 18 70 168.5t83 162.5q6 3 28 3.5t31 -11t9 -36.5t-16 -66q-100 -248 -173 -528q-35 -139 -35 -258t4 -140t-12.5 -40t-29 -26.5 t-34.5 1.5q-22 8 -32 30q-11 24 1.5 137t34.5 211l25 108q-116 -254 -205 -378t-173 -125q-52 2 -52 96zM457 1220q1 9 7 11q44 4 82 35q45 27 143 185q13 15 24 16q27 0 44 -45q6 -18 7 -31q0 -52 -144 -144q-99 -62 -117.5 -62t-35.5 15q-11 11 -10 20z" />
<glyph unicode="&#xdb;" horiz-adv-x="753" d="M175 75q0 141 85 446t124.5 406.5t47.5 126.5q21 57 64 56.5t44 -41.5q0 -30 -23 -90q-189 -504 -232 -834q12 1 28 18q160 185 338 603q8 18 70 168.5t83 162.5q6 3 28 3.5t31 -11t9 -36.5t-16 -66q-100 -248 -173 -528q-35 -139 -35 -258t4 -140t-12.5 -40t-29 -26.5 t-34.5 1.5q-22 8 -32 30q-11 24 1.5 137t34.5 211l25 108q-116 -254 -205 -378t-173 -125q-52 2 -52 96zM466 1220.5q0 33.5 26.5 59t80 72t79.5 73t45.5 26.5t29.5 -19t10 -28t-7 -58.5t-12 -81t-27.5 -49.5t-36.5 -18q-10 2 -10.5 24t15.5 108q-66 -50 -143 -124 q-23 -20 -30 -20q-20 2 -20 35.5z" />
<glyph unicode="&#xdc;" horiz-adv-x="753" d="M175 75q0 141 85 446t124.5 406.5t47.5 126.5q21 57 64 56.5t44 -41.5q0 -30 -23 -90q-189 -504 -232 -834q12 1 28 18q160 185 338 603q8 18 70 168.5t83 162.5q6 3 28 3.5t31 -11t9 -36.5t-16 -66q-100 -248 -173 -528q-35 -139 -35 -258t4 -140t-12.5 -40t-29 -26.5 t-34.5 1.5q-22 8 -32 30q-11 24 1.5 137t34.5 211l25 108q-116 -254 -205 -378t-173 -125q-52 2 -52 96zM471 1224q33 21 54 53q18 24 32.5 105.5t21.5 109.5t35.5 28.5t50.5 -25t22 -42.5q0 -42 -97 -180q-26 -36 -48 -56q-26 -24 -40.5 -25.5t-25.5 8.5q-18 16 -5 24z M627 1231q-10 10 1 19q44 23 76 84q10 18 23 91t20 101.5t35.5 29.5t50.5 -25t22 -42q0 -50 -97 -180q-33 -44 -57 -68q-41 -40 -74 -10z" />
<glyph unicode="&#xdd;" horiz-adv-x="462" d="M-81 -220.5q1 9.5 15 26.5q101 122 205 348l132 301q-72 451 -94.5 554.5t-19.5 130.5q4 23 42 36q15 5 32.5 4.5t22.5 -18.5q10 -48 43 -249t48 -279l176 441q7 16 18 50t27.5 45t55 11.5t38.5 -20.5q-1 -3 -1 -5q0 -6 -3 -18l-407 -971q-73 -169 -125.5 -243 t-107.5 -115t-76.5 -40t-20.5 10.5zM318 1215q1 9 7 11q44 4 82 35q45 27 143 185q13 15 24 16q27 0 44 -45q6 -18 7 -31q0 -52 -144 -144q-99 -62 -117.5 -62t-35.5 15q-11 11 -10 20z" />
<glyph unicode="&#xde;" horiz-adv-x="690" d="M-200 -440q0 9 24 14h2q80 18 152 105q16 19 27 38q121 192 216 581l112 472q77 328 95 373t40 51q18 6 46 6t32 -16q1 -5 1 -23.5t-14 -58.5v-2q-8 -25 -82 -324q11 2 34 2q110 0 147 -58q14 -24 14 -54q0 -145 -102.5 -342.5t-206.5 -293.5q-62 -57 -106 -59 q-51 -142 -108 -231.5t-138.5 -145t-128 -55.5t-56.5 21zM272 97q178 196 251 420q23 72 31 139q-24 33 -64.5 33t-62.5 -12q-68 -272 -101 -379q-18 -74 -54 -201z" />
<glyph unicode="&#xdf;" horiz-adv-x="547" d="M-31 -213q0 40 121 496t226 800q28 83 152 83q37 0 70 -12q75 -28 75 -98t-124 -202h16q42 -1 79.5 -45t37.5 -100.5t-19 -118.5q-43 -142 -144.5 -274t-192.5 -132q-43 0 -43 30q1 15 18 28t17 14q88 52 154 131q134 160 134 365q0 35 -14 37q-38 0 -106.5 -47.5 t-77.5 -47t-10 7.5v4q0 4 1.5 10.5t2.5 14.5t3 18t4.5 20t6 20.5t7.5 19.5q8 18 24 33t46 53q90 110 91 161q-1 19 -27 21q-44 -1 -112 -43q-13 -64 -131 -508q-172 -647 -199 -711q-32 -103 -57 -103q-28 1 -29 75z" />
<glyph unicode="&#xe0;" d="M-1.5 68.5q-0.5 41.5 61.5 191.5q100 242 227 373q100 102 194 105l59 -8q14 0 29.5 16t40 16t39 -13t14.5 -22.5t-10 -31.5t-12 -29q-133 -417 -133 -532q1 -40 18 -41q61 0 191 160q87 107 112.5 157t40.5 53q3 0 5 1q18 -2 19 -21q0 -36 -83 -162q-177 -270 -306 -270 q-93 0 -93 130q0 62 25 154.5t30 115.5q-23 -30 -154 -218t-188 -222q-18 -10 -31 -11q-57 0 -83 45q-12 22 -12.5 63.5zM126 91q229 302 401 562q-160 -27 -279 -210q-116 -178 -122 -352zM417 1058q0 17 10 35q20 38 51 38q9 -1 16 -13t41.5 -86t68 -116t83.5 -55l1 -1 q6 -3 6 -9t-10 -18q-8 -12 -26 -12q-30 0 -135.5 92.5t-105.5 144.5z" />
<glyph unicode="&#xe1;" d="M-1.5 68.5q-0.5 41.5 61.5 191.5q100 242 227 373q100 102 194 105l59 -8q14 0 29.5 16t40 16t39 -13t14.5 -22.5t-10 -31.5t-12 -29q-133 -417 -133 -532q1 -40 18 -41q61 0 191 160q87 107 112.5 157t40.5 53q3 0 5 1q18 -2 19 -21q0 -36 -83 -162q-177 -270 -306 -270 q-93 0 -93 130q0 62 25 154.5t30 115.5q-23 -30 -154 -218t-188 -222q-18 -10 -31 -11q-57 0 -83 45q-12 22 -12.5 63.5zM126 91q229 302 401 562q-160 -27 -279 -210q-116 -178 -122 -352zM450 907q1 9 7 11q44 4 82 35q45 27 143 185q13 15 24 16q27 0 44 -45q6 -18 7 -31 q0 -52 -144 -144q-99 -62 -117.5 -62t-35.5 15q-11 11 -10 20z" />
<glyph unicode="&#xe2;" d="M-1.5 68.5q-0.5 41.5 61.5 191.5q100 242 227 373q100 102 194 105l59 -8q14 0 29.5 16t40 16t39 -13t14.5 -22.5t-10 -31.5t-12 -29q-133 -417 -133 -532q1 -40 18 -41q61 0 191 160q87 107 112.5 157t40.5 53q3 0 5 1q18 -2 19 -21q0 -36 -83 -162q-177 -270 -306 -270 q-93 0 -93 130q0 62 25 154.5t30 115.5q-23 -30 -154 -218t-188 -222q-18 -10 -31 -11q-57 0 -83 45q-12 22 -12.5 63.5zM126 91q229 302 401 562q-160 -27 -279 -210q-116 -178 -122 -352zM453 913.5q0 33.5 26.5 59t80 72t79.5 73t45.5 26.5t29.5 -19t10 -28t-7 -58.5 t-12 -81t-27.5 -49.5t-36.5 -18q-10 2 -10.5 24t15.5 108q-66 -50 -143 -124q-23 -20 -30 -20q-20 2 -20 35.5z" />
<glyph unicode="&#xe3;" d="M-1.5 68.5q-0.5 41.5 61.5 191.5q100 242 227 373q100 102 194 105l59 -8q14 0 29.5 16t40 16t39 -13t14.5 -22.5t-10 -31.5t-12 -29q-133 -417 -133 -532q1 -40 18 -41q61 0 191 160q87 107 112.5 157t40.5 53q3 0 5 1q18 -2 19 -21q0 -36 -83 -162q-177 -270 -306 -270 q-93 0 -93 130q0 62 25 154.5t30 115.5q-23 -30 -154 -218t-188 -222q-18 -10 -31 -11q-57 0 -83 45q-12 22 -12.5 63.5zM126 91q229 302 401 562q-160 -27 -279 -210q-116 -178 -122 -352zM332 896q2 13 38 13q127 0 184 74q33 43 54 113q25 83 59.5 83t57.5 -28.5t23 -46 t-10 -42.5q-44 -104 -159 -159q-77 -36 -161.5 -36t-85.5 29z" />
<glyph unicode="&#xe4;" d="M-1.5 68.5q-0.5 41.5 61.5 191.5q100 242 227 373q100 102 194 105l59 -8q14 0 29.5 16t40 16t39 -13t14.5 -22.5t-10 -31.5t-12 -29q-133 -417 -133 -532q1 -40 18 -41q61 0 191 160q87 107 112.5 157t40.5 53q3 0 5 1q18 -2 19 -21q0 -36 -83 -162q-177 -270 -306 -270 q-93 0 -93 130q0 62 25 154.5t30 115.5q-23 -30 -154 -218t-188 -222q-18 -10 -31 -11q-57 0 -83 45q-12 22 -12.5 63.5zM126 91q229 302 401 562q-160 -27 -279 -210q-116 -178 -122 -352zM390 873q33 21 54 53q18 24 32.5 105.5t21.5 109.5t35.5 28.5t50.5 -25t22 -42.5 q0 -42 -97 -180q-26 -36 -48 -56q-26 -24 -40.5 -25.5t-25.5 8.5q-18 16 -5 24zM546 880q-10 10 1 19q44 23 76 84q10 18 23 91t20 101.5t35.5 29.5t50.5 -25t22 -42q0 -50 -97 -180q-33 -44 -57 -68q-41 -40 -74 -10z" />
<glyph unicode="&#xe5;" d="M-1.5 68.5q-0.5 41.5 61.5 191.5q100 242 227 373q100 102 194 105l59 -8q14 0 29.5 16t40 16t39 -13t14.5 -22.5t-10 -31.5t-12 -29q-133 -417 -133 -532q1 -40 18 -41q61 0 191 160q87 107 112.5 157t40.5 53q3 0 5 1q18 -2 19 -21q0 -36 -83 -162q-177 -270 -306 -270 q-93 0 -93 130q0 62 25 154.5t30 115.5q-23 -30 -154 -218t-188 -222q-18 -10 -31 -11q-57 0 -83 45q-12 22 -12.5 63.5zM126 91q229 302 401 562q-160 -27 -279 -210q-116 -178 -122 -352zM453 948q0 18 9 37q34 69 149 69q30 0 53 -10q61 -26 62 -109q0 -40 -23 -72 q-38 -51 -111 -51q-139 0 -139 136zM504 939q0 -77 77 -77q15 0 29 4q47 15 47 65q0 65 -65 65q-33 0 -60.5 -14.5t-27.5 -42.5z" />
<glyph unicode="&#xe6;" horiz-adv-x="910" d="M-6 54q0 28 21 93q57 180 159 343q153 243 303 248l59 -8q13 0 28.5 16t37.5 16t46 -15q2 2 33.5 38t64.5 36t60 -11q66 -27 66 -87q0 -9 -6 -29q-41 -81 -132 -187t-185 -169q-32 -116 -32 -181t3 -83q9 -42 67 -42t134 53.5t162 141.5t97.5 99t27.5 29t28.5 17.5 t14.5 -12.5q0 -13 -16 -43q-49 -91 -150 -193q-160 -162 -283 -162q-58 0 -99 33q-77 63 -77 219q0 86 40 205q-6 -8 -92 -132q-86 -123 -116 -161l-48 -63q-23 -31 -34 -44q-48 -59 -79 -59t-52 10q-51 24 -51 84zM122 91q228 302 401 562q-199 -36 -325 -290 q-72 -147 -76 -272zM597 490q20 3 86 86t66 130q0 7 -5 16q-20 -20 -83.5 -114t-63.5 -118z" />
<glyph unicode="&#xe7;" horiz-adv-x="593" d="M78 114q-31 143 35 273q2 4 20 43q111 241 195 335q20 21 53 22q128 0 128 -83q-4 -43 -69 -181.5t-96 -138.5q-15 3 -19 16q0 8 10 19t24 40q44 88 44 148t-17 84q-27 -1 -63 -55q-65 -102 -112.5 -264.5t-47.5 -257.5q0 -13 1 -30q4 -68 57 -68q156 1 437 282 q51 54 57 20q-1 -18 -20 -50q-50 -85 -161 -181q-163 -141 -276 -141q-7 0 -17 1q-6 -7 -6 -16t36 -18l26 -6q73 -22 73 -86q0 -21 -24.5 -54t-57.5 -33t-35 7q1 5 27 27.5t25.5 36.5t-8.5 28.5t-44.5 25t-44.5 13.5q-46 15 -46 42.5t17 53.5q-27 16 -57 54q-32 36 -44 92z " />
<glyph unicode="&#xe8;" horiz-adv-x="486" d="M79 214q0 89 54.5 250.5t167.5 292.5q50 64 104 64q26 0 54 -11q66 -27 66 -87q0 -9 -6 -29q-41 -81 -132 -187t-185 -169q-32 -116 -32 -181t3 -83q9 -42 67 -42t134 53.5t162 141.5t97.5 99t14.5 15q50 54 56 19q0 -13 -16 -43q-49 -91 -150 -193q-160 -162 -283 -162 q-58 0 -99 33q-77 63 -77 219zM250 490q20 3 86 86t66 130q0 7 -5 16q-20 -20 -83.5 -114t-63.5 -118zM296 1058q0 17 10 35q20 38 51 38q9 -1 16 -13t41.5 -86t68 -116t83.5 -55l1 -1q6 -3 6 -9t-10 -18q-8 -12 -26 -12q-30 0 -135.5 92.5t-105.5 144.5z" />
<glyph unicode="&#xe9;" horiz-adv-x="486" d="M79 214q0 89 54.5 250.5t167.5 292.5q50 64 104 64q26 0 54 -11q66 -27 66 -87q0 -9 -6 -29q-41 -81 -132 -187t-185 -169q-32 -116 -32 -181t3 -83q9 -42 67 -42t134 53.5t162 141.5t97.5 99t14.5 15q50 54 56 19q0 -13 -16 -43q-49 -91 -150 -193q-160 -162 -283 -162 q-58 0 -99 33q-77 63 -77 219zM250 490q20 3 86 86t66 130q0 7 -5 16q-20 -20 -83.5 -114t-63.5 -118zM297 907q1 9 7 11q44 4 82 35q45 27 143 185q13 15 24 16q27 0 44 -45q6 -18 7 -31q0 -52 -144 -144q-99 -62 -117.5 -62t-35.5 15q-11 11 -10 20z" />
<glyph unicode="&#xea;" horiz-adv-x="486" d="M79 214q0 89 54.5 250.5t167.5 292.5q50 64 104 64q26 0 54 -11q66 -27 66 -87q0 -9 -6 -29q-41 -81 -132 -187t-185 -169q-32 -116 -32 -181t3 -83q9 -42 67 -42t134 53.5t162 141.5t97.5 99t14.5 15q50 54 56 19q0 -13 -16 -43q-49 -91 -150 -193q-160 -162 -283 -162 q-58 0 -99 33q-77 63 -77 219zM250 490q20 3 86 86t66 130q0 7 -5 16q-20 -20 -83.5 -114t-63.5 -118zM316 913.5q0 33.5 26.5 59t80 72t79.5 73t45.5 26.5t29.5 -19t10 -28t-7 -58.5t-12 -81t-27.5 -49.5t-36.5 -18q-10 2 -10.5 24t15.5 108q-66 -50 -143 -124 q-23 -20 -30 -20q-20 2 -20 35.5z" />
<glyph unicode="&#xeb;" horiz-adv-x="486" d="M79 214q0 89 54.5 250.5t167.5 292.5q50 64 104 64q26 0 54 -11q66 -27 66 -87q0 -9 -6 -29q-41 -81 -132 -187t-185 -169q-32 -116 -32 -181t3 -83q9 -42 67 -42t134 53.5t162 141.5t97.5 99t14.5 15q50 54 56 19q0 -13 -16 -43q-49 -91 -150 -193q-160 -162 -283 -162 q-58 0 -99 33q-77 63 -77 219zM250 490q20 3 86 86t66 130q0 7 -5 16q-20 -20 -83.5 -114t-63.5 -118zM285 873q33 21 54 53q18 24 32.5 105.5t21.5 109.5t35.5 28.5t50.5 -25t22 -42.5q0 -42 -97 -180q-26 -36 -48 -56q-26 -24 -40.5 -25.5t-25.5 8.5q-18 16 -5 24z M441 880q-10 10 1 19q44 23 76 84q10 18 23 91t20 101.5t35.5 29.5t50.5 -25t22 -42q0 -50 -97 -180q-33 -44 -57 -68q-41 -40 -74 -10z" />
<glyph unicode="&#xec;" horiz-adv-x="469" d="M74 178q0 155 60 359q75 258 141 258q33 0 48.5 -15.5t15.5 -22.5q0 -32 -65 -157.5t-80.5 -182t-23 -147t-7.5 -116.5q0 -88 21.5 -110t52.5 -23q88 0 210 153q59 75 92 138q15 24 31 24q27 -4 30 -27q0 -3 -3 -15q-37 -104 -147 -212q-130 -128 -218 -128 q-119 0 -149 135q-9 41 -9 89zM192 1058q0 17 10 35q20 38 51 38q9 -1 16 -13t41.5 -86t68 -116t83.5 -55l1 -1q6 -3 6 -9t-10 -18q-8 -12 -26 -12q-30 0 -135.5 92.5t-105.5 144.5z" />
<glyph unicode="&#xed;" horiz-adv-x="469" d="M74 178q0 155 60 359q75 258 141 258q33 0 48.5 -15.5t15.5 -22.5q0 -32 -65 -157.5t-80.5 -182t-23 -147t-7.5 -116.5q0 -88 21.5 -110t52.5 -23q88 0 210 153q59 75 92 138q15 24 31 24q27 -4 30 -27q0 -3 -3 -15q-37 -104 -147 -212q-130 -128 -218 -128 q-119 0 -149 135q-9 41 -9 89zM193 907q1 9 7 11q44 4 82 35q45 27 143 185q13 15 24 16q27 0 44 -45q6 -18 7 -31q0 -52 -144 -144q-99 -62 -117.5 -62t-35.5 15q-11 11 -10 20z" />
<glyph unicode="&#xee;" horiz-adv-x="469" d="M74 178q0 155 60 359q75 258 141 258q33 0 48.5 -15.5t15.5 -22.5q0 -32 -65 -157.5t-80.5 -182t-23 -147t-7.5 -116.5q0 -88 21.5 -110t52.5 -23q88 0 210 153q59 75 92 138q15 24 31 24q27 -4 30 -27q0 -3 -3 -15q-37 -104 -147 -212q-130 -128 -218 -128 q-119 0 -149 135q-9 41 -9 89zM212 913.5q0 33.5 26.5 59t80 72t79.5 73t45.5 26.5t29.5 -19t10 -28t-7 -58.5t-12 -81t-27.5 -49.5t-36.5 -18q-10 2 -10.5 24t15.5 108q-66 -50 -143 -124q-23 -20 -30 -20q-20 2 -20 35.5z" />
<glyph unicode="&#xef;" horiz-adv-x="469" d="M74 178q0 155 60 359q75 258 141 258q33 0 48.5 -15.5t15.5 -22.5q0 -32 -65 -157.5t-80.5 -182t-23 -147t-7.5 -116.5q0 -88 21.5 -110t52.5 -23q88 0 210 153q59 75 92 138q15 24 31 24q27 -4 30 -27q0 -3 -3 -15q-37 -104 -147 -212q-130 -128 -218 -128 q-119 0 -149 135q-9 41 -9 89zM211 873q33 21 54 53q18 24 32.5 105.5t21.5 109.5t35.5 28.5t50.5 -25t22 -42.5q0 -42 -97 -180q-26 -36 -48 -56q-26 -24 -40.5 -25.5t-25.5 8.5q-18 16 -5 24zM367 880q-10 10 1 19q44 23 76 84q10 18 23 91t20 101.5t35.5 29.5t50.5 -25 t22 -42q0 -50 -97 -180q-33 -44 -57 -68q-41 -40 -74 -10z" />
<glyph unicode="&#xf0;" horiz-adv-x="712" d="M22 -14q0 100 109 316q39 78 51 100q79 155 166 235q48 44 81 45l19 -2q13 0 21 2q13 47 25 112q-32 -6 -92 -6t-82 5q-26 16 -27 45q2 13 11 16q112 15 201 24q12 108 12 194t-2 115q5 34 40 37q48 0 64.5 -22.5t17.5 -39.5l-53 -278q53 3 94 3q14 -9 18 -52 q-1 -18 -37.5 -19t-89.5 -9q-109 -561 -143 -665t-58 -150q-73 -133 -195 -133q-150 2 -151 127zM110 0q2 -50 44 -51q130 0 194 195q41 127 41 269q-1 77 -23 78q-33 0 -106 -125l-16 -28q-130 -253 -134 -338z" />
<glyph unicode="&#xf1;" horiz-adv-x="622" d="M-57 -2q0 48 321 796q50 118 58 132q17 33 71 -3q16 -11 16.5 -22t-15.5 -35q-37 -58 -66 -135l-38 -99l32 39q43 53 69 80.5t43.5 31t36.5 3.5q41 -3 43 -44q0 -20 -14 -54q-63 -145 -97 -439q-9 -84 -8.5 -147.5t30.5 -64.5q42 0 153 130.5t160 216.5q13 21 37 22 q25 -6 29 -32q0 -50 -114 -184t-170.5 -176.5t-113.5 -42.5q-106 1 -106 168q0 79 32 247.5t34 183.5q-106 -35 -203 -266q-20 -49 -64 -167q-43 -117 -61 -139q-22 -26 -58 -26t-37 26zM458 896q2 13 38 13q127 0 184 74q33 43 54 113q25 83 59.5 83t57.5 -28.5t23 -46 t-10 -42.5q-44 -104 -159 -159q-77 -36 -161.5 -36t-85.5 29z" />
<glyph unicode="&#xf2;" horiz-adv-x="420" d="M15 53q0 73 59.5 296t136.5 386q44 90 90 91q28 0 48 -16q35 -30 35 -116q0 -393 -140 -589l-14 -21q-87 -126 -140 -126q-65 7 -75 95zM109 166q0 -44 8 -44q42 0 131 180.5t89 330.5q0 68 -20 69q-50 -8 -129 -250t-79 -286zM256 1058q0 17 10 35q20 38 51 38 q9 -1 16 -13t41.5 -86t68 -116t83.5 -55l1 -1q6 -3 6 -9t-10 -18q-8 -12 -26 -12q-30 0 -135.5 92.5t-105.5 144.5z" />
<glyph unicode="&#xf3;" horiz-adv-x="420" d="M15 53q0 73 59.5 296t136.5 386q44 90 90 91q28 0 48 -16q35 -30 35 -116q0 -393 -140 -589l-14 -21q-87 -126 -140 -126q-65 7 -75 95zM109 166q0 -44 8 -44q42 0 131 180.5t89 330.5q0 68 -20 69q-50 -8 -129 -250t-79 -286zM241 907q1 9 7 11q44 4 82 35 q45 27 143 185q13 15 24 16q27 0 44 -45q6 -18 7 -31q0 -52 -144 -144q-99 -62 -117.5 -62t-35.5 15q-11 11 -10 20z" />
<glyph unicode="&#xf4;" horiz-adv-x="420" d="M15 53q0 73 59.5 296t136.5 386q44 90 90 91q28 0 48 -16q35 -30 35 -116q0 -393 -140 -589l-14 -21q-87 -126 -140 -126q-65 7 -75 95zM109 166q0 -44 8 -44q42 0 131 180.5t89 330.5q0 68 -20 69q-50 -8 -129 -250t-79 -286zM242 913.5q0 33.5 26.5 59t80 72t79.5 73 t45.5 26.5t29.5 -19t10 -28t-7 -58.5t-12 -81t-27.5 -49.5t-36.5 -18q-10 2 -10.5 24t15.5 108q-66 -50 -143 -124q-23 -20 -30 -20q-20 2 -20 35.5z" />
<glyph unicode="&#xf5;" horiz-adv-x="420" d="M15 53q0 73 59.5 296t136.5 386q44 90 90 91q28 0 48 -16q35 -30 35 -116q0 -393 -140 -589l-14 -21q-87 -126 -140 -126q-65 7 -75 95zM109 166q0 -44 8 -44q42 0 131 180.5t89 330.5q0 68 -20 69q-50 -8 -129 -250t-79 -286zM169 896q2 13 38 13q127 0 184 74 q33 43 54 113q25 83 59.5 83t57.5 -28.5t23 -46t-10 -42.5q-44 -104 -159 -159q-77 -36 -161.5 -36t-85.5 29z" />
<glyph unicode="&#xf6;" horiz-adv-x="420" d="M15 53q0 73 59.5 296t136.5 386q44 90 90 91q28 0 48 -16q35 -30 35 -116q0 -393 -140 -589l-14 -21q-87 -126 -140 -126q-65 7 -75 95zM109 166q0 -44 8 -44q42 0 131 180.5t89 330.5q0 68 -20 69q-50 -8 -129 -250t-79 -286zM226 873q33 21 54 53q18 24 32.5 105.5 t21.5 109.5t35.5 28.5t50.5 -25t22 -42.5q0 -42 -97 -180q-26 -36 -48 -56q-26 -24 -40.5 -25.5t-25.5 8.5q-18 16 -5 24zM382 880q-10 10 1 19q44 23 76 84q10 18 23 91t20 101.5t35.5 29.5t50.5 -25t22 -42q0 -50 -97 -180q-33 -44 -57 -68q-41 -40 -74 -10z" />
<glyph unicode="&#xf7;" horiz-adv-x="952" d="M124 510q0 14 15 16h3q422 36 621 36h11q19 0 28 -39q2 -9 2 -16q-1 -17 -74 -18.5t-199.5 -15.5t-233 -14t-134.5 7q-39 10 -39 44zM348 262q0 29 10 49l16 35q4 -14 10 -23t42 -9q53 0 53 -55q0 -13 -6 -25q-16 -31 -46 -31t-46 10q-33 20 -33 49zM428 738q0 17 10 37 l16 35q4 -14 10 -23t42 -9q53 0 53 -55q0 -13 -6 -25q-15 -31 -45 -31q-80 0 -80 71z" />
<glyph unicode="&#xf8;" horiz-adv-x="553" d="M-62 32q-18 7 1 38l109 149q14 58 37 132q70 232 148 384q16 30 19 36q30 52 74 51.5t66.5 -25t33.5 -72.5l46 58q7 9 22 9q39 -7 38 -30q-3 -17 -32 -53l-66 -86q-1 -37 -5 -68q-42 -283 -157 -427l-41 -52q-72 -89 -125 -89q-80 0 -80 91q-47 -53 -74 -50q-4 0 -14 4z M118 130.5q0 -21.5 11 -21.5q11 1 30 20q55 56 117 177.5t85 215.5l-57 -82q-97 -142 -134 -188l-40 -49q-12 -51 -12 -72.5zM194 418l180 241v3q-10 66 -25 66q-54 -2 -155 -310z" />
<glyph unicode="&#xf9;" horiz-adv-x="639" d="M32 51q0 116 82 389q116 385 146 407q6 3 14 3t22 -5q41 -15 42 -40q0 -9 -14 -49l-38 -109q-134 -384 -151 -508q74 113 178.5 322.5t126.5 250.5t33.5 70t21.5 32.5t37 3.5q40 0 40 -37q-3 -19 -42.5 -124.5t-85 -282t-45 -248t13.5 -73.5q44 0 158.5 125.5 t167.5 226.5q22 40 42 41q10 -2 11 -16q0 -84 -111.5 -219t-191.5 -190l-20 -13q-34 -18 -50 -18h-17q-88 15 -90 148q0 66 20 136l22 81q-98 -215 -163.5 -295.5t-118.5 -80.5q-40 2 -40 72zM212 1058q0 17 10 35q20 38 51 38q9 -1 16 -13t41.5 -86t68 -116t83.5 -55l1 -1 q6 -3 6 -9t-10 -18q-8 -12 -26 -12q-30 0 -135.5 92.5t-105.5 144.5z" />
<glyph unicode="&#xfa;" horiz-adv-x="639" d="M32 51q0 116 82 389q116 385 146 407q6 3 14 3t22 -5q41 -15 42 -40q0 -9 -14 -49l-38 -109q-134 -384 -151 -508q74 113 178.5 322.5t126.5 250.5t33.5 70t21.5 32.5t37 3.5q40 0 40 -37q-3 -19 -42.5 -124.5t-85 -282t-45 -248t13.5 -73.5q44 0 158.5 125.5 t167.5 226.5q22 40 42 41q10 -2 11 -16q0 -84 -111.5 -219t-191.5 -190l-20 -13q-34 -18 -50 -18h-17q-88 15 -90 148q0 66 20 136l22 81q-98 -215 -163.5 -295.5t-118.5 -80.5q-40 2 -40 72zM325 907q1 9 7 11q44 4 82 35q45 27 143 185q13 15 24 16q27 0 44 -45 q6 -18 7 -31q0 -52 -144 -144q-99 -62 -117.5 -62t-35.5 15q-11 11 -10 20z" />
<glyph unicode="&#xfb;" horiz-adv-x="639" d="M32 51q0 116 82 389q116 385 146 407q6 3 14 3t22 -5q41 -15 42 -40q0 -9 -14 -49l-38 -109q-134 -384 -151 -508q74 113 178.5 322.5t126.5 250.5t33.5 70t21.5 32.5t37 3.5q40 0 40 -37q-3 -19 -42.5 -124.5t-85 -282t-45 -248t13.5 -73.5q44 0 158.5 125.5 t167.5 226.5q22 40 42 41q10 -2 11 -16q0 -84 -111.5 -219t-191.5 -190l-20 -13q-34 -18 -50 -18h-17q-88 15 -90 148q0 66 20 136l22 81q-98 -215 -163.5 -295.5t-118.5 -80.5q-40 2 -40 72zM310 913.5q0 33.5 26.5 59t80 72t79.5 73t45.5 26.5t29.5 -19t10 -28t-7 -58.5 t-12 -81t-27.5 -49.5t-36.5 -18q-10 2 -10.5 24t15.5 108q-66 -50 -143 -124q-23 -20 -30 -20q-20 2 -20 35.5z" />
<glyph unicode="&#xfc;" horiz-adv-x="639" d="M32 51q0 116 82 389q116 385 146 407q6 3 14 3t22 -5q41 -15 42 -40q0 -9 -14 -49l-38 -109q-134 -384 -151 -508q74 113 178.5 322.5t126.5 250.5t33.5 70t21.5 32.5t37 3.5q40 0 40 -37q-3 -19 -42.5 -124.5t-85 -282t-45 -248t13.5 -73.5q44 0 158.5 125.5 t167.5 226.5q22 40 42 41q10 -2 11 -16q0 -84 -111.5 -219t-191.5 -190l-20 -13q-34 -18 -50 -18h-17q-88 15 -90 148q0 66 20 136l22 81q-98 -215 -163.5 -295.5t-118.5 -80.5q-40 2 -40 72zM340 882q33 21 54 53q18 24 32.5 105.5t21.5 109.5t35.5 28.5t50.5 -25t22 -42.5 q0 -42 -97 -180q-26 -36 -48 -56q-26 -24 -40.5 -25.5t-25.5 8.5q-18 16 -5 24zM496 889q-10 10 1 19q44 23 76 84q10 18 23 91t20 101.5t35.5 29.5t50.5 -25t22 -42q0 -50 -97 -180q-33 -44 -57 -68q-41 -40 -74 -10z" />
<glyph unicode="&#xfd;" horiz-adv-x="614" d="M-113 -760q1 8 28 14.5t59 24.5q90 54 137 148q188 321 272 928q-29 -89 -118.5 -232.5t-165.5 -143.5q-41 0 -40 82q3 257 176 725q7 19 13 32q15 32 32.5 32t30.5 -3q52 -11 53 -42q0 -7 -14 -49l-49 -143q-117 -338 -140 -474q68 104 187.5 340t129.5 255q12 19 18 35 l8 21q12 28 35 28q56 0 59 -32q0 -10 -38 -152l-47 -169q-15 -57 -38.5 -188.5t-48.5 -240.5q-100 -434 -211 -609q-33 -52 -82 -100q-109 -108 -202 -108q-44 0 -44 21zM318 907q1 9 7 11q44 4 82 35q45 27 143 185q13 15 24 16q27 0 44 -45q6 -18 7 -31q0 -52 -144 -144 q-99 -62 -117.5 -62t-35.5 15q-11 11 -10 20z" />
<glyph unicode="&#xfe;" horiz-adv-x="693" d="M-232 -306q-1 16 29 45q138 182 475 1007q197 484 197 508q8 28 53 28.5t57.5 -16.5t12.5 -27.5t-5 -19.5q-171 -296 -206 -513q70 43 137.5 43t92.5 -50q10 -21 10 -46q0 -73 -95.5 -295t-199.5 -344q-64 -74 -109 -75q-65 0 -65 159q0 76 17 164q-75 -211 -177 -387 l-19 -32q-42 -63 -102 -111.5t-92 -49.5q-11 2 -11 12zM249.5 152.5q0.5 -26.5 22.5 -27.5q48 0 135.5 171t121.5 301q9 36 9 54.5t-17 18.5q-107 0 -191 -184q-61 -136 -78 -280q-3 -27 -2.5 -53.5z" />
<glyph unicode="&#xff;" horiz-adv-x="614" d="M-113 -760q1 8 28 14.5t59 24.5q90 54 137 148q188 321 272 928q-29 -89 -118.5 -232.5t-165.5 -143.5q-41 0 -40 82q3 257 176 725q7 19 13 32q15 32 32.5 32t30.5 -3q52 -11 53 -42q0 -7 -14 -49l-49 -143q-117 -338 -140 -474q68 104 187.5 340t129.5 255q12 19 18 35 l8 21q12 28 35 28q56 0 59 -32q0 -10 -38 -152l-47 -169q-15 -57 -38.5 -188.5t-48.5 -240.5q-100 -434 -211 -609q-33 -52 -82 -100q-109 -108 -202 -108q-44 0 -44 21zM321 873q33 21 54 53q18 24 32.5 105.5t21.5 109.5t35.5 28.5t50.5 -25t22 -42.5q0 -42 -97 -180 q-26 -36 -48 -56q-26 -24 -40.5 -25.5t-25.5 8.5q-18 16 -5 24zM477 880q-10 10 1 19q44 23 76 84q10 18 23 91t20 101.5t35.5 29.5t50.5 -25t22 -42q0 -50 -97 -180q-33 -44 -57 -68q-41 -40 -74 -10z" />
<glyph unicode="&#x2c6;" horiz-adv-x="563" d="M132 913.5q0 33.5 26.5 59t80 72t79.5 73t45.5 26.5t29.5 -19t10 -28t-7 -58.5t-12 -81t-27.5 -49.5t-36.5 -18q-10 2 -10.5 24t15.5 108q-66 -50 -143 -124q-23 -20 -30 -20q-20 2 -20 35.5z" />
<glyph unicode="&#x2dc;" horiz-adv-x="669" d="M112 896q2 13 38 13q127 0 184 74q33 43 54 113q25 83 59.5 83t57.5 -28.5t23 -46t-10 -42.5q-44 -104 -159 -159q-77 -36 -161.5 -36t-85.5 29z" />
<glyph unicode="&#x2000;" horiz-adv-x="806" />
<glyph unicode="&#x2001;" horiz-adv-x="1613" />
<glyph unicode="&#x2002;" horiz-adv-x="806" />
<glyph unicode="&#x2003;" horiz-adv-x="1613" />
<glyph unicode="&#x2004;" horiz-adv-x="537" />
<glyph unicode="&#x2005;" horiz-adv-x="403" />
<glyph unicode="&#x2006;" horiz-adv-x="268" />
<glyph unicode="&#x2007;" horiz-adv-x="268" />
<glyph unicode="&#x2008;" horiz-adv-x="201" />
<glyph unicode="&#x2009;" horiz-adv-x="322" />
<glyph unicode="&#x200a;" horiz-adv-x="89" />
<glyph unicode="&#x2010;" horiz-adv-x="669" d="M133 429q2 13 11 16q252 33 374 33q14 -9 18 -52q-1 -18 -26 -18q-63 -3 -137.5 -16t-132.5 -13t-80 5q-26 16 -27 45z" />
<glyph unicode="&#x2011;" horiz-adv-x="669" d="M133 429q2 13 11 16q252 33 374 33q14 -9 18 -52q-1 -18 -26 -18q-63 -3 -137.5 -16t-132.5 -13t-80 5q-26 16 -27 45z" />
<glyph unicode="&#x2012;" horiz-adv-x="669" d="M133 429q2 13 11 16q252 33 374 33q14 -9 18 -52q-1 -18 -26 -18q-63 -3 -137.5 -16t-132.5 -13t-80 5q-26 16 -27 45z" />
<glyph unicode="&#x2013;" horiz-adv-x="875" d="M184 430q0 14 14 16h2q381 36 554 36q17 0 25 -41q2 -9 2 -14q-1 -17 -65 -18.5t-175.5 -15.5t-198 -14t-118.5 5q-40 14 -40 46z" />
<glyph unicode="&#x2014;" horiz-adv-x="1099" d="M56 437q0 17 22 17q547 39 783 40h25q25 0 37 -41q3 -12 3 -21q-1 -19 -57 -19q-144 -3 -299 -18.5t-285 -15.5t-168 7q-56 17 -61 51z" />
<glyph unicode="&#x2018;" horiz-adv-x="429" d="M69 797q0 58 119 192q26 29 47.5 48.5t48 20t31.5 -23.5q0 -8 -14 -14q-43 -18 -68.5 -63t-72.5 -199q-10 -29 -16 -30t-8 -2q-28 0 -47.5 25.5t-19.5 45.5z" />
<glyph unicode="&#x2019;" horiz-adv-x="443" d="M95 727q0 5 6 9q40 21 65 62q34 46 68 213q7 34 24 33q25 0 47.5 -24.5t22.5 -45.5q0 -51 -97 -180q-32 -43 -57 -67t-41.5 -24.5t-27 9.5t-10.5 15z" />
<glyph unicode="&#x201c;" horiz-adv-x="627" d="M102 797q0 48 107 178q71 86 95 86t34 -11q14 -16 4 -24q-99 -45 -147 -269q-7 -31 -25 -32q-24 0 -46 26t-22 46zM272 826q0 49 107 178q33 41 59 63q44 38 75 6q10 -10 -1 -19q-41 -18 -66 -54q-52 -78 -81 -214q-7 -31 -26 -32q-24 0 -45 26t-22 46z" />
<glyph unicode="&#x201d;" horiz-adv-x="1027" d="M252 727q0 5 6 9q40 21 65 62q32 43 67 213q11 31 24 34q26 0 48 -25t23 -46q0 -50 -95 -178q-71 -94 -94 -94t-33.5 10t-10.5 15zM419 762q2 5 7 9q40 21 70.5 72t61.5 203q11 31 24 34q25 0 47.5 -25t23.5 -45q0 -50 -94 -178q-34 -46 -60 -69.5t-42 -24t-26.5 9 t-11.5 14.5z" />
<glyph unicode="&#x2022;" horiz-adv-x="750" d="M178 546q1 119 200 120q64 0 110 -42.5t46 -110.5t-32 -109q-49 -63 -135 -63t-137.5 55t-51.5 150z" />
<glyph unicode="&#x2026;" horiz-adv-x="1091" d="M144 86q0 15 1 21t31 72q6 -18 14.5 -29.5t37.5 -11.5t39 -3q45 -12 45 -66q0 -18 -7 -33q-20 -39 -61 -39t-70.5 22t-29.5 67zM459 86q0 15 1 21t31 72q6 -18 14.5 -29.5t37.5 -11.5t39 -3q45 -12 45 -66q0 -18 -7 -33q-20 -39 -61 -39t-70.5 22t-29.5 67zM779 86 q0 15 1 21t31 72q6 -18 14.5 -29.5t37.5 -11.5t39 -3q45 -12 45 -66q0 -18 -7 -33q-20 -39 -61 -39t-70.5 22t-29.5 67z" />
<glyph unicode="&#x202f;" horiz-adv-x="322" />
<glyph unicode="&#x205f;" horiz-adv-x="403" />
<glyph unicode="&#x25fc;" horiz-adv-x="785" d="M0 0v785h785v-785h-785z" />
</font>
</defs>
</svg>
